[bittorrent] Cowboy Junkies 07/23/2010 The Orange Peel Asheville, NC neumann ak40's

Automated Mailer noreply-bt.e at etree.org
Sat Jul 24 13:55:40 MDT 2010


Band:           Cowboy Junkies
Torrent Name:   Cowboy Junkies 07/23/2010 The Orange Peel Asheville, NC neumann ak40's
Uploaded by:    datdork
DB Link:        http://db.etree.org/lookup_show.php?shows_key=493504
Details:        http://bt.etree.org/details.php?id=537113

Contact the seeder at http://db.etree.org/datdork

If the link to this show does not work, it was probably removed for
being non-trade-friendly.

Description / text file:
-------------------------
Cowboy Junkies
07/23/2010
The Orange Peel
Asheville, NC

source:   Neumann ak40 > lc3 > km100 (din) > Lunatec V3 > Edirol R-44 @ 24/48
location: directly in front of soundboard dfc 45' from stage
transfer: SDHC card > PC > wavelab 6.1 > cd wave > traders little helper (flac level 8)

all editing (fades, Crystal Resampler (high), dither w/ iZotope Ozone 4) done in wavelab 6.1

*16bit/44.1khz fileset*

recorded and transferred by Gordon Wilson

A Team Dirty South Recording

01. Cicadas
02. Hunted *
03. He Will Call You Baby
04. Stranger Here
05. Little Dark Heart 
06. Hold On To Me
07. A Horse In The Country
08. No Expectations
09. Sir Francis Bacon At The Net
10. Supernatural ^
11. River Waltz ^
12. Renmin Park ^
13. Don't Let It Bring You Down
14. Dragging Hooks (River Song Trilogy: Part III)
15. Crew/Band Intros
16. Murder, Tonight, In The Trailer Park

encore:
17. Lay It Down
18. A Common Disaster


* Margo was having monitor issues and all but abandoned the vocals
^ acoustic, just Margo, Mike, & Jeff
suggested disc split after track 12

shntool 3.0.4
Copyright (C) 2000-2007 Jason Jordan <shnutils at freeshell.org>

    length     expanded size    cdr  WAVE problems  fmt   ratio  filename
     7:38.19       80835932 B   ---   --   ---xx   flac  0.4244  cj2010-07-23t01.flac
     5:11.37       54947468 B   ---   --   ---xx   flac  0.5868  cj2010-07-23t02.flac
     8:29.59       89926412 B   ---   --   ---xx   flac  0.4742  cj2010-07-23t03.flac
     3:33.60       37714364 B   ---   --   ---xx   flac  0.5438  cj2010-07-23t04.flac
     6:24.20       67784684 B   ---   --   ---xx   flac  0.4738  cj2010-07-23t05.flac
     3:48.25       40278044 B   ---   --   ---xx   flac  0.5013  cj2010-07-23t06.flac
     4:44.68       50257580 B   ---   --   ---xx   flac  0.5141  cj2010-07-23t07.flac
     4:23.67       46550828 B   ---   --   ---xx   flac  0.5385  cj2010-07-23t08.flac
     6:28.04       68452652 B   ---   --   ---xx   flac  0.4999  cj2010-07-23t09.flac
     4:12.36       44537516 B   ---   --   ---xx   flac  0.4402  cj2010-07-23t10.flac
     5:44.53       60806300 B   ---   --   ---xx   flac  0.4529  cj2010-07-23t11.flac
     4:34.22       48385388 B   ---   --   ---xx   flac  0.4084  cj2010-07-23t12.flac
     3:48.09       40240412 B   ---   --   ---xx   flac  0.5502  cj2010-07-23t13.flac
    11:15.04      119079452 B   ---   --   ---xx   flac  0.5175  cj2010-07-23t14.flac
     4:56.19       52259132 B   ---   --   ---xx   flac  0.4213  cj2010-07-23t15.flac
     8:03.58       85337660 B   ---   --   ---xx   flac  0.6021  cj2010-07-23t16.flac
     7:37.34       80694812 B   ---   --   ---xx   flac  0.5176  cj2010-07-23t17.flac
     5:12.60       55177964 B   ---   --   ---xx   flac  0.5335  cj2010-07-23t18.flac
   106:07.54     1123266600 B                            0.5007  (18 files)





More information about the bittorrent mailing list