[bittorrent] God Street Wine - 7/17/2010 - Irving Plaza - New York, NY

Automated Mailer noreply-bt.e at etree.org
Sat Jul 24 10:02:30 MDT 2010


Band:           Other
Torrent Name:   God Street Wine - 7/17/2010 - Irving Plaza - New York, NY
Uploaded by:    cimburgia
DB Link:        
Details:        http://bt.etree.org/details.php?id=537105

Contact the seeder at http://db.etree.org/cimburgia

If the link to this show does not work, it was probably removed for
being non-trade-friendly.

Description / text file:
-------------------------
PERFORMANCE
Band: God Street Wine
Date: July 17, 2010
Venue: Fillmore at Irving Plaza
City, State: New York, NY
Taper: Chris Imburgia

SETLIST & TRACKING 
Set One
01. Intro 
02. Nightingale 
03. Driving West > 
04. Better Than You > 
05. Hellfire 
06. Ballroom 
07. 6:15 
08. Feather 
09. Straight Line 
10. Imogene 

Set Two
11. Intro 
12. Good Dream 
13. Snake Eyes 
14. Princess Henrietta 
15. Strange As it Seems 
16. Tina’s Town > 
17. Cheap Utah Blues > 
18. Deep Drag 
19. Diana 
20. Borderline 
Encore 1:
21. Ticket to Ride 
22. Sweet Little Angel 
Encore 2:
23. Other Shore > 
24. Into The Sea 

RECORDING NOTES
Location: DFC / FOB
Microphone: Milab VM-44 Classic (Cardioid)
Microphone Configuration: NOS
Preamp, A/D Conversion and Recording Deck: Tascam HD-P2
Recording Format: Wav file, 24 bits @ 48 kHz Sample Rate

CONVERSION 
Transfer: CF-> USB-> PC
[1] Song Tracking with CD Wave
[2] Levels Normalized with Wavelab 5
[3] File Compression with Trader's Little Helper (Level 6)
[4] FLAC File Tagging with Foobar 2000 Live Show Tagger Plugin
[5] Album Art tagging with Media Monkey 
Final Format: FLAC Files, 16 Bits @ 44.1 kHz Sample Rate

FLAC FINGERPRINT 
gsw2010-07-17t01.flac:f409ab432ffdf3df99764feafb6d9c2d
gsw2010-07-17t02.flac:c96bffd82d0a291261028cc58d0e753b
gsw2010-07-17t03.flac:627e6ae7bf4df605aeb13a8db88822c3
gsw2010-07-17t04.flac:7efb26b7989766dc0c22d508294ab14d
gsw2010-07-17t05.flac:c6a88f115a3945a15b6c7d11c2bd1b7b
gsw2010-07-17t06.flac:8382aec885d7819a0e2c69dde4427146
gsw2010-07-17t07.flac:f1f621aa4bc4585721724ff9820bbc70
gsw2010-07-17t08.flac:372594b0cf80ffbe8b23899dd9513f90
gsw2010-07-17t09.flac:612adebab952fb5358a832da650ab5e4
gsw2010-07-17t10.flac:3913d121e40a8ca5668d25cae78765d5
gsw2010-07-17t11.flac:7336f577baff2eb631495b2ab893a2df
gsw2010-07-17t12.flac:436f029cb09be745d29c8074d00f0ce4
gsw2010-07-17t13.flac:392a9b752eadc8db7dabfd9abe9dd8b2
gsw2010-07-17t14.flac:55c589f39c0bc75ee4bac34b16df392b
gsw2010-07-17t15.flac:7d0558d62cd2ed5d77dc55821e7bcd43
gsw2010-07-17t16.flac:11b10eb034d4b9ce23d28bef037889f1
gsw2010-07-17t17.flac:ad1945933250cc0a9e26b71e73539a96
gsw2010-07-17t18.flac:f8b3fda681e2efc0f9d94341999c62e1
gsw2010-07-17t19.flac:e3db4e41f3a7a074905a456fc134639e
gsw2010-07-17t20.flac:4af6981775fb5f12b32c3c5db361d643
gsw2010-07-17t21.flac:64d6cc61fc41f07e26b9e6e7e92a1a00
gsw2010-07-17t22.flac:b83b6219354153904c055f799634fa86
gsw2010-07-17t23.flac:17a94ac8c9b30ba33e2964c14c3f6553
gsw2010-07-17t24.flac:90ef4516b64e244eb3e66e216d1ab0fd

SECTOR BOUNDARY CONFIRMATION
 length     expanded size    cdr  WAVE problems  fmt   ratio  filename
     0:43.15        7620524 B   ---   --   ---xx   flac  0.5973  gsw2010-07-17t01.flac
     7:00.44       74191532 B   ---   --   ---xx   flac  0.5962  gsw2010-07-17t02.flac
    12:08.24      128475692 B   ---   --   ---xx   flac  0.5471  gsw2010-07-17t03.flac
     7:05.60       75111164 B   ---   --   ---xx   flac  0.5679  gsw2010-07-17t04.flac
    13:40.00      144648044 B   ---   --   ---xx   flac  0.5777  gsw2010-07-17t05.flac
     5:49.23       61617740 B   ---   --   ---xx   flac  0.5769  gsw2010-07-17t06.flac
     6:30.24       68852492 B   ---   --   ---xx   flac  0.5617  gsw2010-07-17t07.flac
     6:35.27       69741548 B   ---   --   ---xx   flac  0.5800  gsw2010-07-17t08.flac
     4:26.23       46976540 B   ---   --   ---xx   flac  0.5428  gsw2010-07-17t09.flac
    14:55.08      157896860 B   ---   --   ---xx   flac  0.5773  gsw2010-07-17t10.flac
     0:21.00        3704444 B   ---   --   ---xx   flac  0.6319  gsw2010-07-17t11.flac
     4:26.09       46943612 B   ---   --   ---xx   flac  0.5637  gsw2010-07-17t12.flac
     9:33.68      101237180 B   ---   --   ---xx   flac  0.5622  gsw2010-07-17t13.flac
     9:22.50       99254444 B   ---   --   ---xx   flac  0.5768  gsw2010-07-17t14.flac
     7:28.48       79140140 B   ---   --   ---xx   flac  0.5408  gsw2010-07-17t15.flac
     5:43.59       60644012 B   ---   --   ---xx   flac  0.5905  gsw2010-07-17t16.flac
     5:29.26       58096796 B   ---   --   ---xx   flac  0.5757  gsw2010-07-17t17.flac
     9:32.01      100903196 B   ---   --   ---xx   flac  0.5561  gsw2010-07-17t18.flac
    11:17.37      119509868 B   ---   --   ---xx   flac  0.5579  gsw2010-07-17t19.flac
    17:56.26      189867596 B   ---   --   ---xx   flac  0.5268  gsw2010-07-17t20.flac
     7:20.23       77670140 B   ---   --   ---xx   flac  0.5626  gsw2010-07-17t21.flac
    10:53.48      115302140 B   ---   --   ---xx   flac  0.4989  gsw2010-07-17t22.flac
    12:11.73      129120140 B   ---   --   ---xx   flac  0.5724  gsw2010-07-17t23.flac
     7:14.71       76724636 B   ---   --   ---xx   flac  0.5473  gsw2010-07-17t24.flac
   197:46.37     2093250480 B                            0.5597  (24 files)




More information about the bittorrent mailing list