[bittorrent] Widespread Panic Ives Concert Park Danbury Connecticut 7/23/2010 (Schoeps CCM4V'S FOB)

Automated Mailer noreply-bt.e at etree.org
Sat Jul 24 06:31:53 MDT 2010


Band:           Widespread Panic
Torrent Name:   Widespread Panic Ives Concert Park Danbury Connecticut 7/23/2010 (Schoeps CCM4V'S FOB)
Uploaded by:    zmanatl
DB Link:        
Details:        http://bt.etree.org/details.php?id=537097

Contact the seeder at http://db.etree.org/zmanatl

If the link to this show does not work, it was probably removed for
being non-trade-friendly.

Description / text file:
-------------------------
Widespread Panic
Ives Concert Park 
Danbury, Connecticut
7/23/2010

Source: Schoeps CCM4V'S(din)>Sound Devices 722 (24/48)
FOB/DFC/KFC/ZFC/AARP Row P, Seat 112, 7' High 
DSP: Sound Devices 722>Sound Forge 9.0>CD Wave>flac(16)
Recorded By: Z-Man
Seeded By: Z-Man

Disc I 1st Set

01 Rock >
02 Shut Up And Drive >
03 1 x 1
04 Let's Get Down To Business
05 Rebirtha >
06 Jam >
07 Fixin' To Die
08 Time Zones 
09 Last Straw >
10 Fishwater >
11 Drum Solo >
12 Fishwater

Disc II 2nd Set

01 Jam >
02 Papa Legba >
03 Give 
04 Dirty Side Down
05 Space Wrangler >
06 Wonderin'
07 Don't Wanna Lose You > 
08 *Use Me 
 
Disc III 2nd Set Con't

01 All Time Low >
02 Tie Your Shoes > 
03 Climb To Safety
Encore:
04 JB Banter
05 Stoned Me
06 Conrad The Caterpillar
 
* With 20 Second Stop In The Middle  

Flac Fingerprint 

wsp2010-07-23d01t01.flac:bcb3ef49dc1d2f7bb536d75af3169169
wsp2010-07-23d01t02.flac:cffe859f1826eb51271bb2f506431d37
wsp2010-07-23d01t03.flac:fff64af8b677da05c94bdbc7e969f4cb
wsp2010-07-23d01t04.flac:62c7fcd989964ed8007d575b82ed251c
wsp2010-07-23d01t05.flac:1657b7c25c021acb46fb3d485437a633
wsp2010-07-23d01t06.flac:276fdd0263218db601ca8dbbe962aa8a
wsp2010-07-23d01t07.flac:7bebdd817649f603136cffa38488d00f
wsp2010-07-23d01t08.flac:aeb15d6577052e3e92d643c73574a545
wsp2010-07-23d01t09.flac:2818c67a9d3004dca607081f6ad9cd89
wsp2010-07-23d01t10.flac:62c86fa8d5d5f61d767a2e68bf49509c
wsp2010-07-23d01t11.flac:28ec1730fc3a425130e8b30bd6541482
wsp2010-07-23d01t12.flac:d0d20679917e887a6e1871218839cf35
wsp2010-07-23d02t01.flac:387b9cb67997ae3f285d17a8a5421e36
wsp2010-07-23d02t02.flac:e5be86a20d9ddcfec6f2fd7d7c6ef164
wsp2010-07-23d02t03.flac:15777b42d35214ed1a54e7edb00e8d94
wsp2010-07-23d02t04.flac:c295ce3b57ad3224d0478e29f17c5969
wsp2010-07-23d02t05.flac:5d7384335e78018c67df484ec99a12c8
wsp2010-07-23d02t06.flac:645633448006c3f903ec7b78571e1461
wsp2010-07-23d02t07.flac:d4a05841d9cb8c54dccec53bd686f8f0
wsp2010-07-23d02t08.flac:e50a6ef8bb2c9c65ba7e18580b2981b7
wsp2010-07-23d03t01.flac:072f30df6099dd5d6d159d21df715483
wsp2010-07-23d03t02.flac:6deb6bee12a594268f6c55d2228eb57a
wsp2010-07-23d03t03.flac:832870a61477dbd59fa588ba46ae5480
wsp2010-07-23d03t04.flac:ac65667ad6f3a0ea1d40b14a4d6c3757
wsp2010-07-23d03t05.flac:6b02eaa0810d4fd8cefc3968daea5a94
wsp2010-07-23d03t06.flac:3abd8bcb4fb06d82fa8ac62ce053a408

Shntool 

    length     expanded size    cdr  WAVE problems  fmt   ratio  filename
     6:02.24       63913292 B   ---   --   ---xx   flac  0.2827  wsp2010-07-23d01t01.flac
     7:34.21       80135036 B   ---   --   ---xx   flac  0.2723  wsp2010-07-23d01t02.flac
     6:38.48       70320140 B   ---   --   ---xx   flac  0.2746  wsp2010-07-23d01t03.flac
     4:51.43       51433580 B   ---   --   ---xx   flac  0.2805  wsp2010-07-23d01t04.flac
     7:33.67       80066828 B   ---   --   ---xx   flac  0.2880  wsp2010-07-23d01t05.flac
     5:15.16       55603676 B   ---   --   ---xx   flac  0.2792  wsp2010-07-23d01t06.flac
     6:00.09       63525212 B   ---   --   ---xx   flac  0.3010  wsp2010-07-23d01t07.flac
     6:48.65       72124124 B   ---   --   ---xx   flac  0.2839  wsp2010-07-23d01t08.flac
     4:49.02       50984348 B   ---   --   ---xx   flac  0.2712  wsp2010-07-23d01t09.flac
     5:07.09       54176012 B   ---   --   ---xx   flac  0.3015  wsp2010-07-23d01t10.flac
     1:06.68       11802380 B   ---   --   ---xx   flac  0.2882  wsp2010-07-23d01t11.flac
     5:49.30       61634204 B   ---   --   ---xx   flac  0.2987  wsp2010-07-23d01t12.flac
     1:22.64       14615372 B   ---   --   ---xx   flac  0.1591  wsp2010-07-23d02t01.flac
     7:56.20       84013484 B   ---   --   ---xx   flac  0.2454  wsp2010-07-23d02t02.flac
     5:18.66       56250476 B   ---   --   ---xx   flac  0.2871  wsp2010-07-23d02t03.flac
     5:55.31       62694956 B   ---   --   ---xx   flac  0.2749  wsp2010-07-23d02t04.flac
     8:40.69       91890332 B   ---   --   ---xx   flac  0.2787  wsp2010-07-23d02t05.flac
     5:09.25       54566444 B   ---   --   ---xx   flac  0.2860  wsp2010-07-23d02t06.flac
     6:08.49       65030492 B   ---   --   ---xx   flac  0.2692  wsp2010-07-23d02t07.flac
    10:31.35      111390764 B   ---   --   ---xx   flac  0.2840  wsp2010-07-23d02t08.flac
     7:51.53       83209100 B   ---   --   ---xx   flac  0.2734  wsp2010-07-23d03t01.flac
     9:10.30       97090604 B   ---   --   ---xx   flac  0.2787  wsp2010-07-23d03t02.flac
     6:06.32       64637708 B   ---   --   ---xx   flac  0.2839  wsp2010-07-23d03t03.flac
     0:39.64        7030172 B   ---   --   ---xx   flac  0.2059  wsp2010-07-23d03t04.flac
     5:32.53       58689500 B   ---   --   ---xx   flac  0.2610  wsp2010-07-23d03t05.flac
     9:19.69       98769932 B   ---   --   ---xx   flac  0.2730  wsp2010-07-23d03t06.flac
   157:22.12     1665598168 B                            0.2776  (26 files)







More information about the bittorrent mailing list