[bittorrent] Juniper Tar 2010-06-05 Chicago IL - Schuba's (opened for Mother Hips) aud+sbd

Automated Mailer noreply-bt.e at etree.org
Fri Jul 23 02:04:33 MDT 2010


Band:           Other
Torrent Name:   Juniper Tar 2010-06-05 Chicago IL - Schuba's (opened for Mother Hips) aud+sbd
Uploaded by:    morst
DB Link:        
Details:        http://bt.etree.org/details.php?id=537054

Contact the seeder at http://db.etree.org/morst

If the link to this show does not work, it was probably removed for
being non-trade-friendly.

Description / text file:
-------------------------
***this is the 16-bit version, intended for CD burning***

Juniper Tar
June 5, 2010
Chicago IL USA
Schuba's

Juniper Tar opened for Mother Hips

Mother Hips set here: http://www.archive.org/details/MotherHips2010-06-05.matrix
High-resolution 24-bit version - http://www.archive.org/details/MotherHips2010-06-05.matrix2448

Source:
Neumann KM140's ORTF on tall stand at SBD > Beyer MV100 > M-Audio Microtrack II > WAV @24-bit/48kHz + Soundcraft GB8 SBD > Zoom H2 > WAV @24-bit/48kHz

Transfer:
WAVs > Powermac G4 > MOTU Digital Performer 4 (align & mix @24/48, convert & dither to 16/441) > WAV > Audacity 1.3.12 (tracking) > WAV > xACT 1.72 > FLAC level 8

FoH Audio (Schuba's): Fabriz

Recording & Transfer: morst

SHNTOOL:
    length     expanded size    cdr  WAVE problems  fmt   ratio  filename
     0:26.47        4696988 B   ---   --   ---xx  JuniperTar2010-06-05t01.flac
     6:15.60       66291164 B   ---   --   ---xx  JuniperTar2010-06-05t02.flac
     3:56.46       41738636 B   ---   --   ---xx  JuniperTar2010-06-05t03.flac
     2:21.11       24898316 B   ---   --   ---xx  JuniperTar2010-06-05t04.flac
     3:37.49       38394092 B   ---   --   ---xx  JuniperTar2010-06-05t05.flac
     7:10.63       76000220 B   ---   --   ---xx  JuniperTar2010-06-05t06.flac
     2:41.48       28513340 B   ---   --   ---xx  JuniperTar2010-06-05t07.flac
     5:58.48       63264140 B   ---   --   ---xx  JuniperTar2010-06-05t08.flac
     7:06.22       75198188 B   ---   --   ---xx  JuniperTar2010-06-05t09.flac
     3:35.34       38006012 B   ---   --   ---xx  JuniperTar2010-06-05t10.flac
    43:10.53      457001096 B                            0.5039  (10 files)

-~-~-~-~-~-~-~-~-~-~-~-~-~-~-~-~-~-~-~-~-~-~-~-~-~-
The Soundscape Preservation Society (Founded 1991)
http://www.iamtypingwithonefinger.com/SPS.html
-~-~-~-~-~-~-~-~-~-~-~-~-~-~-~-~-~-~-~-~-~-~-~-~-~-



More information about the bittorrent mailing list