No subject


Fri Jul 16 09:31:03 MDT 2010


SteveSw - Nov, 2008
------------------------------------------------------------------------

Disc 1 - Set 1
01 Minglewood Blues
02 Candyman
03 Me & My Uncle >
04 Big River
05 Ramble on Rose
06 Lazy Lightnin'  >
07 Supplication >
08 Deal

Disc 2 - Set 2
01 Scarlet Begonias >
02 Fire on the Mountain >
03 Let it Grow > spacey jam
04 Drums >
05 Space >

Disc 3 - Set 2 (cont'd)
01 Truckin' >
02 Wharf Rat  >
03 Around & Around >
04 Johnny B. Goode
encore
05 Don't Ease Me In
06 Brokedown Palace

SBD>MC>DAT>CD (except for Truckin' which is from an unknown AUD source).
seeds via Charlie Miller
DAE,FTP, rule no.5 via neo_levo.


==========

    length     expanded size    cdr  WAVE problems  fmt   ratio  filename
     8:14.41       87238076 B   ---   --   ---xx   flac  0.6354  gd79-12-30d1t01.flac
     6:45.08       71460860 B   ---   --   ---xx   flac  0.5980  gd79-12-30d1t02.flac
     3:07.36       33071516 B   ---   --   ---xx   flac  0.6227  gd79-12-30d1t03.flac
     6:51.43       72601580 B   ---   --   ---xx   flac  0.6188  gd79-12-30d1t04.flac
     7:46.01       82204796 B   ---   --   ---xx   flac  0.5645  gd79-12-30d1t05.flac
     3:38.25       38514044 B   ---   --   ---xx   flac  0.6161  gd79-12-30d1t06.flac
     5:51.45       62022284 B   ---   --   ---xx   flac  0.6435  gd79-12-30d1t07.flac
     5:28.22       57910988 B   ---   --   ---xx   flac  0.6588  gd79-12-30d1t08.flac
    10:00.24      105896492 B   ---   --   ---xx   flac  0.6250  gd79-12-30d2t01.flac
     9:48.70      103887884 B   ---   --   ---xx   flac  0.6214  gd79-12-30d2t02.flac
    13:27.20      142401884 B   ---   --   ---xx   flac  0.6204  gd79-12-30d2t03.flac
     8:19.41       88120076 B   ---   --   ---xx   flac  0.5682  gd79-12-30d2t04.flac
     6:14.34       66053612 B   ---   --   ---xx   flac  0.5554  gd79-12-30d2t05.flac
     7:05.07       74986508 B   ---   --   ---xx   flac  0.5669  gd79-12-30d3t01.flac
     9:13.43       97650380 B   ---   --   ---xx   flac  0.5967  gd79-12-30d3t02.flac
     4:35.26       48571196 B   ---   --   ---xx   flac  0.6088  gd79-12-30d3t03.flac
     5:02.47       53383388 B   ---   --   ---xx   flac  0.6348  gd79-12-30d3t04.flac
     4:30.25       47686844 B   ---   --   ---xx   flac  0.6268  gd79-12-30d3t05.flac
     5:03.74       53623292 B   ---   --   ---xx   flac  0.5801  gd79-12-30d3t06.flac
   131:04.32     1387285700 B                            0.6076  (19 files)




More information about the bittorrent mailing list