[bittorrent] gd88-03-18.sbd.miller.91157.sbeok.flac16

Automated Mailer noreply-bt.e at etree.org
Wed Jul 21 07:59:15 MDT 2010


Band:           Grateful Dead
Torrent Name:   gd88-03-18.sbd.miller.91157.sbeok.flac16
Uploaded by:    WHARFRAT73
DB Link:        http://db.etree.org/shn/91157
Details:        http://bt.etree.org/details.php?id=537000

Contact the seeder at http://db.etree.org/WHARFRAT73

If the link to this show does not work, it was probably removed for
being non-trade-friendly.

Description / text file:
-------------------------
Grateful Dead - March 18, 1988
Henry J. Kaiser Auditorium - Oakland, CA

Recording Info:
SBD -> Dat (48k)

Transfer Info:
Dat (Sony R500) -> Sound Devices 744T -> Samplitude Professional v10.02 -> FLAC
(2 Discs Audio / 2 Discs FLAC)

All Transfers and Mastering By Charlie Miller
charliemiller87 at earthlink.net
March 26, 2008

Notes:
-- Disc change is seamless

Set 1:
d1t01 - Tuning
d1t02 - Iko Iko
d1t03 - Little Red Rooster
d1t04 - Brown-Eyed Women
d1t05 - When I Paint My Masterpiece
d1t06 - Bird Song
d1t07 - The Music Never Stopped

Set 2:
d1t08 - Tuning
d1t09 - When Push Comes To Shove ->
d1t10 - Man Smart Woman Smarter
d1t11 - Ship of Fools
d2t01 - Uncle John's Band ->
d2t02 - Drums ->
d2t03 - Space ->
d2t04 - The Other One ->
d2t05 - Stella Blue ->
d2t06 - Throwing Stones ->
d2t07 - Not Fade Away

Encore:
d2t08 - Not Fade Away
d2t09 - Brokedown Palace


SHNTOOL OUTPUT:
    length     expanded size   cdr  WAVE problems filename
     1:38.20       17334284    ---   --   -----   gd88-03-18d1t01.wav
     8:01.35       84930764    ---   --   -----   gd88-03-18d1t02.wav
    11:02.48      116889740    ---   --   -----   gd88-03-18d1t03.wav
     5:45.51       60977996    ---   --   -----   gd88-03-18d1t04.wav
     5:27.53       57807500    ---   --   -----   gd88-03-18d1t05.wav
    11:19.74      119949692    ---   --   -----   gd88-03-18d1t06.wav
     6:49.04       72157052    ---   --   -----   gd88-03-18d1t07.wav
     0:52.07        9189308    ---   --   -----   gd88-03-18d1t08.wav
     4:31.64       47954972    ---   --   -----   gd88-03-18d1t09.wav
     7:59.34       84575612    ---   --   -----   gd88-03-18d1t10.wav
     8:13.63       87113420    ---   --   -----   gd88-03-18d1t11.wav
    11:32.55      122198204    ---   --   -----   gd88-03-18d2t01.wav
     7:36.56       80570156    ---   --   -----   gd88-03-18d2t02.wav
     9:37.20      101829884    ---   --   -----   gd88-03-18d2t03.wav
     7:39.27       81031148    ---   --   -----   gd88-03-18d2t04.wav
     8:10.12       86464268    ---   --   -----   gd88-03-18d2t05.wav
     9:05.51       96257996    ---   --   -----   gd88-03-18d2t06.wav
     9:51.73      104424140    ---   --   -----   gd88-03-18d2t07.wav
     0:46.70        8279084    ---   --   -----   gd88-03-18d2t08.wav
     5:16.22       55794188    ---   --   -----   gd88-03-18d2t09.wav
   141:19.14     1495729408 B                     (totals for 20 files)




More information about the bittorrent mailing list