[bittorrent] Zac Brown Band Meadowbrook U S Cellular Pavilion 7/19/2010 (Schoeps CCM4V'S FOB)

Automated Mailer noreply-bt.e at etree.org
Tue Jul 20 20:56:35 MDT 2010


Band:           Other
Torrent Name:   Zac Brown Band Meadowbrook U S Cellular Pavilion 7/19/2010 (Schoeps CCM4V'S FOB)
Uploaded by:    zmanatl
DB Link:        
Details:        http://bt.etree.org/details.php?id=536996

Contact the seeder at http://db.etree.org/zmanatl

If the link to this show does not work, it was probably removed for
being non-trade-friendly.

Description / text file:
-------------------------
Zac Brown Band
Meadowbrook U S Cellular Pavilion
Gilford, New Hampshire
7/19/2010

Source: Schoeps CCM4V'S(din)>Sound Devices 722 (24/48)
FOB/DFC/KFC/ZFC/AARP Front Rail In Front Of Soundboard, 7' High
DSP: Sound Devices 722>Sound Forge 9.0>CD Wave>flac(16)
Recorded By: Z-Man
Seeded By: Z-Man

Disc I Rory And Joey Feek, and Members of the Zac Brown Band

01 Georgia On The PA
02 Play The Song (Rory and Joey)
03 *? (Levi Solo)
04 *?
05 *#Where Ever We Break Down
06 *#The Problem With Freedom
07 *#Did You Meet That White Trash Whore
08 #She Was A Good Truck
09 Banter
10 @Ribbon Red
11 *@Ain't Dead Yet
12 #@Roamin'
13 #@?
14 That's Important To Me
15 I'm A Lot More Country Than That
16 ^Money Don't Make You Happy
17 #^Wrong Side Of The Tracks
18 #^Hard Headed
19 #^Cut It Loose

Disc II Zac Brown Band

01 Different Kind Of Fine
02 Whiskey's Gone
03 Free >
04 Into The Mystic >
05 Free
06 Colder Weather
07 ? New Song
08 Find The Cost Of Freedom >
09 The Devil Went Down To Georgia
10 %Blackbird >
11 %Percussion Solo >
12 %Bass And Percussion Solo >
13 %Blackbird
14 $Instrumental
15 +?
16 Highway 20 Ride
17 Let It Go
18 ?It's Too Late

Disc III

01 Junkyard
02 The Night They Drove Old Dixie Down 
03 Chicken
04 &Who Knows
05 Banter On Child Brain Disorder
06 America The Beautiful >
07 Chicken Fried
08 !This Song's For You
09 *@^!Pass That Bottle
10 !I Shall Be Released
11 !Toes
12 Band Introductions

* With Levi Lowery
# With Zac Brown
@ With Sonia Lee
^ With Nic Cowan
% WithZac On Percussion
$ With Barry Waldron
+ With Uncle Massive On Vocal Rap
& With Donald Dunleavy On Guitar
! With Rory And Joey Feek

Flac Fingerprint 

zac2010-07-19d01t01.flac:9425cbaa761d32e16d52c5769fc5e3b5
zac2010-07-19d01t02.flac:1591ff9ce3ac0bbd91a1a923773ae7a4
zac2010-07-19d01t03.flac:6394766fef7c0af9613eae2c0d5b3c1c
zac2010-07-19d01t04.flac:344cefb2e9ec4f06ab4f36bd9633e02f
zac2010-07-19d01t05.flac:df4f51c38e7c289d0951f4e7b50ca6e7
zac2010-07-19d01t06.flac:9cfbc28bbfda8ef3d3bc5d9a1382be55
zac2010-07-19d01t07.flac:e6443f3e0beceb1099e8b757814a7dff
zac2010-07-19d01t08.flac:b7698876229cf43b18c1f839d37697a9
zac2010-07-19d01t09.flac:91df786a5b0acb98e373025cd23ae701
zac2010-07-19d01t10.flac:0571f93ec0d435cdcbfebff651be1a1d
zac2010-07-19d01t11.flac:23ae92db4d4295cbc550e46afd92e35d
zac2010-07-19d01t12.flac:dc5e0b213974da06d3a8c142d223d0d5
zac2010-07-19d01t13.flac:b357317a21ec83354abdcd593c333f3e
zac2010-07-19d01t14.flac:06440b8e1064dc6ffeefe6d85e726408
zac2010-07-19d01t15.flac:5aa7710fbe8adcfd6e1c80c1e51dc65b
zac2010-07-19d01t16.flac:547b7b3fb852892ca9c0baa637dc8ca4
zac2010-07-19d01t17.flac:40667f8e1f93cff6d64e1767d6a0560f
zac2010-07-19d01t18.flac:79e86cb6b8f991842fc8c79e2d9c9d5d
zac2010-07-19d01t19.flac:a627aedd54ffb3486389232bc9340ba5
zac2010-07-19d02t01.flac:a259b430a25121b75bae0de0cef1f5d9
zac2010-07-19d02t02.flac:9ca6204ab00d7b95b8e02ee3f8c9e97c
zac2010-07-19d02t03.flac:57e1b31314ed38c3e857021b37975359
zac2010-07-19d02t04.flac:46c878b895d0d9751fb1534c8015ac19
zac2010-07-19d02t05.flac:67122940fcb65d046e93fff07252b48b
zac2010-07-19d02t06.flac:586e57575521420411eeb0d894ed426e
zac2010-07-19d02t07.flac:56dec058371e13fadb00db2f6cc91d9b
zac2010-07-19d02t08.flac:72df8417610b1bc940f979382df01abb
zac2010-07-19d02t09.flac:d714e4878d6ff6fa8c6b6e612167054d
zac2010-07-19d02t10.flac:668026eb4d2e31ff652c63ec0c74a2bf
zac2010-07-19d02t11.flac:bd4be2cbbbed26a3ccd7bba64557a88a
zac2010-07-19d02t12.flac:51172d116db288c72ebeca0ff0e71007
zac2010-07-19d02t13.flac:0107c699475d0f3a2b390167fe4b7e9b
zac2010-07-19d02t14.flac:f812c6d53e74b14336c1197e7935231d
zac2010-07-19d02t15.flac:8bad938a29c96efbce84ae29f020fb3f
zac2010-07-19d02t16.flac:e57477a933a28b7b79602aa4a989218b
zac2010-07-19d02t17.flac:c24277eefdd01c52566d19b85ff87bc7
zac2010-07-19d02t18.flac:e69b297ae435d852f4ca4214004d609c
zac2010-07-19d03t01.flac:64dd515677755bd8475c8dc229cc0b68
zac2010-07-19d03t02.flac:5a657fa005f3f39f451d1d24744de359
zac2010-07-19d03t03.flac:9eaa3739c97164ed10a87f2d306a4c26
zac2010-07-19d03t04.flac:c723f4d6e243c12c05b4832cfcf0db53
zac2010-07-19d03t05.flac:87c605601f0395abf26fccd47d76fb49
zac2010-07-19d03t06.flac:f07a711980391e6e6a42857da93a6191
zac2010-07-19d03t07.flac:a4869580269010a96978b0f060030aa9
zac2010-07-19d03t08.flac:0e90a24d94d0ae078c2d52408b721be9
zac2010-07-19d03t09.flac:70b0e446ddc2efdb57ccc2c8e031913d
zac2010-07-19d03t10.flac:b68a8c9c3969ee84808628fce4b9bc06
zac2010-07-19d03t11.flac:fcbac81e6c849f26a25fd91a43d10b6b
zac2010-07-19d03t12.flac:1089557520cb2931d514202897d6359c

Shntool 

    length     expanded size    cdr  WAVE problems  fmt   ratio  filename
     1:17.41       13679276 B   ---   --   ---xx   flac  0.4640  zac2010-07-19d01t01.flac
     4:26.47       47032988 B   ---   --   ---xx   flac  0.5543  zac2010-07-19d01t02.flac
     4:08.64       43897772 B   ---   --   ---xx   flac  0.5412  zac2010-07-19d01t03.flac
     5:10.12       54712268 B   ---   --   ---xx   flac  0.4926  zac2010-07-19d01t04.flac
     6:18.50       66796844 B   ---   --   ---xx   flac  0.5568  zac2010-07-19d01t05.flac
     4:45.24       50330492 B   ---   --   ---xx   flac  0.6169  zac2010-07-19d01t06.flac
     4:30.29       47696252 B   ---   --   ---xx   flac  0.6163  zac2010-07-19d01t07.flac
     3:35.61       38069516 B   ---   --   ---xx   flac  0.5875  zac2010-07-19d01t08.flac
     1:22.51       14584796 B   ---   --   ---xx   flac  0.5152  zac2010-07-19d01t09.flac
     3:50.66       40727276 B   ---   --   ---xx   flac  0.6551  zac2010-07-19d01t10.flac
     5:11.38       54949820 B   ---   --   ---xx   flac  0.6298  zac2010-07-19d01t11.flac
     5:09.41       54604076 B   ---   --   ---xx   flac  0.5453  zac2010-07-19d01t12.flac
     4:22.14       46249772 B   ---   --   ---xx   flac  0.5931  zac2010-07-19d01t13.flac
     3:19.33       35181260 B   ---   --   ---xx   flac  0.4496  zac2010-07-19d01t14.flac
     3:11.44       33795932 B   ---   --   ---xx   flac  0.4607  zac2010-07-19d01t15.flac
     3:56.03       41637500 B   ---   --   ---xx   flac  0.5743  zac2010-07-19d01t16.flac
     4:37.03       48869900 B   ---   --   ---xx   flac  0.5751  zac2010-07-19d01t17.flac
     3:58.05       41995004 B   ---   --   ---xx   flac  0.5705  zac2010-07-19d01t18.flac
     5:15.17       55606028 B   ---   --   ---xx   flac  0.5996  zac2010-07-19d01t19.flac
     4:13.41       44725676 B   ---   --   ---xx   flac  0.5978  zac2010-07-19d02t01.flac
     3:26.13       36369020 B   ---   --   ---xx   flac  0.5989  zac2010-07-19d02t02.flac
     4:09.29       43991852 B   ---   --   ---xx   flac  0.5387  zac2010-07-19d02t03.flac
     2:18.09       24364412 B   ---   --   ---xx   flac  0.5937  zac2010-07-19d02t04.flac
     1:45.16       18559676 B   ---   --   ---xx   flac  0.5673  zac2010-07-19d02t05.flac
     4:57.37       52477868 B   ---   --   ---xx   flac  0.5058  zac2010-07-19d02t06.flac
     4:39.30       49286204 B   ---   --   ---xx   flac  0.5264  zac2010-07-19d02t07.flac
     1:11.40       12618524 B   ---   --   ---xx   flac  0.4608  zac2010-07-19d02t08.flac
     4:34.26       48394796 B   ---   --   ---xx   flac  0.6506  zac2010-07-19d02t09.flac
     3:02.60       32245964 B   ---   --   ---xx   flac  0.5398  zac2010-07-19d02t10.flac
     0:30.48        5404940 B   ---   --   ---xx   flac  0.5622  zac2010-07-19d02t11.flac
     0:48.52        8589548 B   ---   --   ---xx   flac  0.4854  zac2010-07-19d02t12.flac
     3:20.68       35439980 B   ---   --   ---xx   flac  0.5131  zac2010-07-19d02t13.flac
     3:35.30       37996604 B   ---   --   ---xx   flac  0.5230  zac2010-07-19d02t14.flac
     2:44.33       29007260 B   ---   --   ---xx   flac  0.5147  zac2010-07-19d02t15.flac
     4:50.53       51280700 B   ---   --   ---xx   flac  0.5118  zac2010-07-19d02t16.flac
     5:29.26       58096796 B   ---   --   ---xx   flac  0.5569  zac2010-07-19d02t17.flac
     4:18.37       45598268 B   ---   --   ---xx   flac  0.5705  zac2010-07-19d02t18.flac
     9:00.67       95413628 B   ---   --   ---xx   flac  0.5156  zac2010-07-19d03t01.flac
     5:51.52       62038748 B   ---   --   ---xx   flac  0.5206  zac2010-07-19d03t02.flac
     4:41.22       49620188 B   ---   --   ---xx   flac  0.5608  zac2010-07-19d03t03.flac
    14:26.61      152905916 B   ---   --   ---xx   flac  0.5860  zac2010-07-19d03t04.flac
     1:21.62       14434268 B   ---   --   ---xx   flac  0.5022  zac2010-07-19d03t05.flac
     1:22.52       14587148 B   ---   --   ---xx   flac  0.4785  zac2010-07-19d03t06.flac
     6:15.47       66260588 B   ---   --   ---xx   flac  0.5911  zac2010-07-19d03t07.flac
     6:00.68       63663980 B   ---   --   ---xx   flac  0.5423  zac2010-07-19d03t08.flac
     3:58.15       42018524 B   ---   --   ---xx   flac  0.6040  zac2010-07-19d03t09.flac
     6:31.15       69007724 B   ---   --   ---xx   flac  0.5469  zac2010-07-19d03t10.flac
     4:30.44       47731532 B   ---   --   ---xx   flac  0.5713  zac2010-07-19d03t11.flac
     2:11.16       23146076 B   ---   --   ---xx   flac  0.5426  zac2010-07-19d03t12.flac
   204:37.12     2165693180 B                            0.5582  (49 files)





More information about the bittorrent mailing list