[bittorrent] Sonny Landreth 2010-07-11 Madison WI - Fete de Marquette - DAUD

Automated Mailer noreply-bt.e at etree.org
Mon Jul 19 09:47:57 MDT 2010


Band:           Other
Torrent Name:   Sonny Landreth 2010-07-11 Madison WI - Fete de Marquette - DAUD
Uploaded by:    morst
DB Link:        
Details:        http://bt.etree.org/details.php?id=536943

Contact the seeder at http://db.etree.org/morst

If the link to this show does not work, it was probably removed for
being non-trade-friendly.

Description / text file:
-------------------------
*** Setlist Assistance Appreciated!!! ***

Sonny Landreth
Sunday, July 11, 2010
Madison, Wisconsin USA
La Fete de Marquette

http://www.wil-mar.org/lafete.html


Disc 1 (38:18.00)

01 02:38.21 
02 04:51.68 
03 05:24.66 
04 04:04.45 
05 05:12.26 
06 04:42.60 
07 06:00.28 
08 05:22.61 

Disc 2 (49:38.34)

01 04:48.05 
02 06:21.13 
03 03:24.39 
04 06:34.47 
05 04:17.07 
06 05:54.68 
07 07:39.20 
08 01:43.22 
09 07:13.59 
10 01:41.54 


Source:
Neumann KM140’s (ORTF with windscreens on stand right side of SBD tent, slightly FoB, approx 8' high) > Grace V3 > digital out > Edirol R44 > WAV @24/48

Transfer:
WAV > Digital Performer 4 (level adjustment using limiter plugin, convert sample rate & bit depth) > WAV 16/44.1 > Audacity (tracking) > xACT 1.72 > FLAC

some rain during early part of set but I chose to let the windscreens take it, rather than use an umbrella.

FoH - Bryan Schalburg (Intellisound)

Recorded by Jason "Picklemic" Loomis and morst

SHNTOOL:
    length     expanded size    cdr  WAVE problems  fmt   ratio  filename
     2:38.21       27920636 B   ---   --   ---xx  SonnyLandreth2010-07-11d1t01.flac
     4:51.68       51492380 B   ---   --   ---xx  SonnyLandreth2010-07-11d1t02.flac
     5:24.66       57308876 B   ---   --   ---xx  SonnyLandreth2010-07-11d1t03.flac
     4:04.45       43147484 B   ---   --   ---xx  SonnyLandreth2010-07-11d1t04.flac
     5:12.26       55097996 B   ---   --   ---xx  SonnyLandreth2010-07-11d1t05.flac
     4:42.60       49885964 B   ---   --   ---xx  SonnyLandreth2010-07-11d1t06.flac
     6:00.28       63569900 B   ---   --   ---xx  SonnyLandreth2010-07-11d1t07.flac
     5:22.61       56944316 B   ---   --   ---xx  SonnyLandreth2010-07-11d1t08.flac
     4:48.05       50815004 B   ---   --   ---xx  SonnyLandreth2010-07-11d2t01.flac
     6:21.13       67239020 B   ---   --   ---xx  SonnyLandreth2010-07-11d2t02.flac
     3:24.39       36077372 B   ---   --   ---xx  SonnyLandreth2010-07-11d2t03.flac
     6:34.47       69612188 B   ---   --   ---xx  SonnyLandreth2010-07-11d2t04.flac
     4:17.07       45351308 B   ---   --   ---xx  SonnyLandreth2010-07-11d2t05.flac
     5:54.68       62605580 B   ---   --   ---xx  SonnyLandreth2010-07-11d2t06.flac
     7:39.20       81014684 B   ---   --   ---xx  SonnyLandreth2010-07-11d2t07.flac
     1:43.22       18220988 B   ---   --   ---xx  SonnyLandreth2010-07-11d2t08.flac
     7:13.59       76520012 B   ---   --   ---xx  SonnyLandreth2010-07-11d2t09.flac
     1:41.54       17943736 B   -b-   --   ---xx  SonnyLandreth2010-07-11d2t10.flac
    87:56.34      930767444 B                            0.5771  (18 files)

-~-~-~-~-~-~-~-~-~-~-~-~-~-~-~-~-~-~-~-~-~-~-~-~-~-
A Team Pickle production in conjunction with
The Soundscape Preservation Society (Founded 1991)
http://www.iamtypingwithonefinger.com/SPS.html
-~-~-~-~-~-~-~-~-~-~-~-~-~-~-~-~-~-~-~-~-~-~-~-~-~-



More information about the bittorrent mailing list