[bittorrent] Dawes 2009-10-24 near Lodi WI - Treinen Farm Barn - SBD + AUD mix Daytrotter Barnstorm II

Automated Mailer noreply-bt.e at etree.org
Sun Jul 18 12:00:12 MDT 2010


Band:           Other
Torrent Name:   Dawes 2009-10-24 near Lodi WI - Treinen Farm Barn - SBD + AUD mix Daytrotter Barnstorm II
Uploaded by:    morst
DB Link:        
Details:        http://bt.etree.org/details.php?id=536915

Contact the seeder at http://db.etree.org/morst

If the link to this show does not work, it was probably removed for
being non-trade-friendly.

Description / text file:
-------------------------
Dawes
October 9, 2009
near Lodi WI
Treinen Farm barn

Daytrotter Barnstormier II tour
featuring Paleo, Snowblink, Maritime, Chris Denny, Suckers, Dawes


www.daytrotter.com
www.treinenfarm.com
www.dawestheband.com


01. intro
02. That Western Skyline
03. God Rest My Soul
04. Love Is All I Am
05. When My Time Comes
06. My Way Back Home (?)
07. Bedside Manner
08. Peace In The Valley
09. How Far We've Come


Source: Mackie SBD > Sony PCM-M1 > DAT + Neumann KM140’s > MV100 > -11dB attenuator cable > H2 (mic pads set at -10dB) > WAV @24-bit/48kHz (ORTF on stand, rt of center, 9' high)

Lineage: WAV > Audacity 1.2.6a > ran change speed on H2 audience tracks at +0.013% > mix > 24/48 > Dither to 16/44.1 > xACT 1.64 > FLAC level 8

SHNTOOL:
    length     expanded size    cdr  WAVE problems  fmt   ratio  filename
     0:36.09        6371612 B   ---   --   ---xx  Dawes2009-10-09-MTX-t01.flac
     5:51.43       62017580 B   ---   --   ---xx  Dawes2009-10-09-MTX-t02.flac
     5:26.71       57673436 B   ---   --   ---xx  Dawes2009-10-09-MTX-t03.flac
     5:32.65       58717724 B   ---   --   ---xx  Dawes2009-10-09-MTX-t04.flac
     5:26.56       57638156 B   ---   --   ---xx  Dawes2009-10-09-MTX-t05.flac
     7:24.34       78401612 B   ---   --   ---xx  Dawes2009-10-09-MTX-t06.flac
     4:07.25       43629644 B   ---   --   ---xx  Dawes2009-10-09-MTX-t07.flac
     7:45.69       82188332 B   ---   --   ---xx  Dawes2009-10-09-MTX-t08.flac
     3:29.58       37004060 B   ---   --   ---xx  Dawes2009-10-09-MTX-t09.flac
    45:41.55      483642156 B                            0.4780  (9 files)

~=~=~=~=~=~=~=~=~=~=~=~=~=~=~=~=~=~=~=~=~=~=~=~=~
The Soundscape Preservation Society (Founded 1991)
http://www.iamtypingwithonefinger.com/SPS.html
~=~=~=~=~=~=~=~=~=~=~=~=~=~=~=~=~=~=~=~=~=~=~=~=~



More information about the bittorrent mailing list