[bittorrent] Dawes 2010-02-13 Madison WI - Memorial Union Rathskeller - SBD + AUD mix

Automated Mailer noreply-bt.e at etree.org
Sat Jul 17 22:07:06 MDT 2010


Band:           Other
Torrent Name:   Dawes 2010-02-13 Madison WI - Memorial Union Rathskeller - SBD + AUD mix
Uploaded by:    morst
DB Link:        
Details:        http://bt.etree.org/details.php?id=536898

Contact the seeder at http://db.etree.org/morst

If the link to this show does not work, it was probably removed for
being non-trade-friendly.

Description / text file:
-------------------------
Dawes
Saturday, February 13, 2010
Madison WI
Der Rathskeller at the UW Memorial Union

www.dawestheband.com

Dawes with Jason Boesel played first, then Cory Chisel & Wandering Sons featuring Miles & Daxx Nielsen, then Dawes

Jason Boesel & Dawes set- http://www.archive.org/details/JasonBoesel2010-02-13.matrix


01. When You Call My Name
02. Give Me Time ->
03. Bedside Manner
04. If I Wanted Someone
05. Love Is All I Am
06. How Far We've Come
07. If You Let Me Be Your Anchor
08. My Girl To Me *
09. Time Spent In Los Angeles
10. That Western Skyline
11. When My Time Comes
12. encore break
13. Lawyers Guns & Money
14. banter - Patrick's merch pitch
15. Peace In The Valley *
16. music over PA
17. recordists's signout

* w/ Patrick on saxophone (from Langhorne Slim's band but lives in Wi)


Sources:
Mackie SBD tape outs > Sony PCM-M1 > DAT @16/48
Neumann KM140's > Beyer MV100 > M-Audio Microtrack II > WAV @24/48

Transfer:
WAV files > Audacity 1.3.11 (speed change of .0037% on DAT SBD source, mix sources@ SBD -6dB, AUD -3dB) > WAV @24/48 > Audacity 1.3.11 (tracking, convert & dither) > WAV files @16/44.1 > xACT1.71 > FLAC level 8

FoH audio: Scott (Intellisound)

recordist: morst

SHNTOOL:
    length     expanded size    cdr  WAVE problems  fmt   ratio  filename
     4:28.65       47428124 B   ---   --   ---xx  Dawes2010-02-13-MTX-t01.flac
     3:06.55       32939804 B   ---   --   ---xx  Dawes2010-02-13-MTX-t02.flac
     4:10.73       44271740 B   ---   --   ---xx  Dawes2010-02-13-MTX-t03.flac
     4:46.04       50459852 B   ---   --   ---xx  Dawes2010-02-13-MTX-t04.flac
     5:53.50       62386844 B   ---   --   ---xx  Dawes2010-02-13-MTX-t05.flac
     3:36.11       38128316 B   ---   --   ---xx  Dawes2010-02-13-MTX-t06.flac
     3:54.09       41298812 B   ---   --   ---xx  Dawes2010-02-13-MTX-t07.flac
     5:39.07       59816108 B   ---   --   ---xx  Dawes2010-02-13-MTX-t08.flac
     4:28.49       47390492 B   ---   --   ---xx  Dawes2010-02-13-MTX-t09.flac
     5:39.15       59834924 B   ---   --   ---xx  Dawes2010-02-13-MTX-t10.flac
     5:23.05       56989004 B   ---   --   ---xx  Dawes2010-02-13-MTX-t11.flac
     1:00.29       10652252 B   ---   --   ---xx  Dawes2010-02-13-MTX-t12.flac
     3:51.40       40842524 B   ---   --   ---xx  Dawes2010-02-13-MTX-t13.flac
     1:19.10       13959164 B   ---   --   ---xx  Dawes2010-02-13-MTX-t14.flac
    10:38.30      112613804 B   ---   --   ---xx  Dawes2010-02-13-MTX-t15.flac
     3:44.39       39605372 B   ---   --   ---xx  Dawes2010-02-13-MTX-t16.flac
     0:33.45        5927084 B   ---   --   ---xx  Dawes2010-02-13-MTX-t17.flac
    72:14.11      764544220 B                            0.5123  (17 files)



-~-~-~-~-~-~-~-~-~-~-~-~-~-~-~-~-~-~-~-~-~-~-~-~-~-
The Soundscape Preservation Society (Founded 1991)
http://www.iamtypingwithonefinger.com/SPS.html
-~-~-~-~-~-~-~-~-~-~-~-~-~-~-~-~-~-~-~-~-~-~-~-~-~-

Some photos included as well. Feel free to make cover artwork with them if you like.



More information about the bittorrent mailing list