[bittorrent] Tea Leaf Green - 7/10/2010 -Abbey Pub - Harrisburg, PA

Automated Mailer noreply-bt.e at etree.org
Fri Jul 16 18:06:37 MDT 2010


Band:           Tea Leaf Green
Torrent Name:   Tea Leaf Green  - 7/10/2010 -Abbey Pub - Harrisburg, PA
Uploaded by:    cimburgia
DB Link:        
Details:        http://bt.etree.org/details.php?id=536852

Contact the seeder at http://db.etree.org/cimburgia

If the link to this show does not work, it was probably removed for
being non-trade-friendly.

Description / text file:
-------------------------
PERFORMANCE
Band: Tea Leaf GReen
Date: July 10, 2010
Venue: The Abbey Pub
City, State: Harrisburg, PA
Taper: Chris Imburgia

SETLIST & TRACKING
 
Set One
01. Incandescent Devil 
02. Ride Together 
03. Without A Broom 
04. Dreaming Without Sleeping 
05. My Bastard Brother 
06. Jackson Hole 
07. Rattlin' 
08. Forgiven > 
09. Looking West 

Set Two
10. Jam > 
11. Bouncin' Betty 
12. Drink of Streams 
13. Can't Get High 
14. Freedom 
15. Carter Hotel 
16. The Garden (Part III) 
17. E: Saw Your Mama 

PERFORMANCE NOTES
w/ Rob McMillian (drum kit) supporting Scott (sprained ankle)

RECORDING NOTES
Location: DFC / FOB
Microphone: Milab VM-44 Classic (Cardioid)
Microphone Configuration: NOS
Preamp, A/D Conversion and Recording Deck: Tascam HD-P2
Recording Format: Wav file, 24 bits @ 48 kHz Sample Rate

CONVERSION 
Transfer: CF-> USB-> PC
[1] Song Tracking with CD Wave
[2] Levels Normalized with Wavelab 5
[3] File Compression with Trader's Little Helper (Level 6)
[4] FLAC File Tagging with Foobar 2000 Live Show Tagger Plugin
[5] Album Art tagging with Media Monkey 
Final Format: FLAC Files, 16 Bits @ 44.1 kHz Sample Rate

FLAC FINGERPRINT 
tlg2010-07-10t01.flac:ffb7e012d3ee2dcf5d69b4b7c22a557a
tlg2010-07-10t02.flac:d2bc0b108743b19eddc18edc5e90aa14
tlg2010-07-10t03.flac:1a3f772d7b507b4582a3c96b34cde4bf
tlg2010-07-10t04.flac:e50e3be1dc258f4599072030e4ba371b
tlg2010-07-10t05.flac:1b090a604b4ad78428708fba4237daf7
tlg2010-07-10t06.flac:95a08741e058c354aa221652a0ff3bdd
tlg2010-07-10t07.flac:e7af72c080a1da1adee8bdbba173f316
tlg2010-07-10t08.flac:51c4c108a3382db631c677bac36ec91c
tlg2010-07-10t09.flac:f68d94313c09fd324c2d16005150ca90
tlg2010-07-10t10.flac:a1ca907f41a63a55b2e09344a533dec8
tlg2010-07-10t11.flac:7682199bebc34b7d0bf5ece71c8c8123
tlg2010-07-10t12.flac:359428fe8cfd9b9f2dacf3ab4af3921a
tlg2010-07-10t13.flac:07b6ead870c1bf6ef2973180580bc3fe
tlg2010-07-10t14.flac:43d69c824563d9b532a41ec80fc10283
tlg2010-07-10t15.flac:5c8824c3fb80ad528c2fa01344afae14
tlg2010-07-10t16.flac:d10d5969353c07f45d2b9509e3d7aa00
tlg2010-07-10t17.flac:0387962c4e6cdc8831a9d98e1bf8db63

SECTOR BOUNDARY CONFIRMATION
length     expanded size    cdr  WAVE problems  fmt   ratio  filename
     6:46.69       71780732 B   ---   --   ---xx   flac  0.6291  tlg2010-07-10t01.flac
    10:10.40      107698124 B   ---   --   ---xx   flac  0.5951  tlg2010-07-10t02.flac
     7:22.68       78128780 B   ---   --   ---xx   flac  0.6110  tlg2010-07-10t03.flac
    10:17.53      108963500 B   ---   --   ---xx   flac  0.5710  tlg2010-07-10t04.flac
     5:15.73       55737740 B   ---   --   ---xx   flac  0.6204  tlg2010-07-10t05.flac
     8:54.73       94369340 B   ---   --   ---xx   flac  0.6001  tlg2010-07-10t06.flac
     5:34.70       59082284 B   ---   --   ---xx   flac  0.6135  tlg2010-07-10t07.flac
     8:40.44       91831532 B   ---   --   ---xx   flac  0.5826  tlg2010-07-10t08.flac
     9:38.13      101989820 B   ---   --   ---xx   flac  0.6200  tlg2010-07-10t09.flac
     4:12.13       44483420 B   ---   --   ---xx   flac  0.6187  tlg2010-07-10t10.flac
     4:58.31       52640156 B   ---   --   ---xx   flac  0.6619  tlg2010-07-10t11.flac
     6:43.46       71197436 B   ---   --   ---xx   flac  0.6093  tlg2010-07-10t12.flac
     8:58.50       95020844 B   ---   --   ---xx   flac  0.6043  tlg2010-07-10t13.flac
    12:56.48      136999340 B   ---   --   ---xx   flac  0.6216  tlg2010-07-10t14.flac
     4:36.02       48691148 B   ---   --   ---xx   flac  0.5993  tlg2010-07-10t15.flac
     7:49.61       82875116 B   ---   --   ---xx   flac  0.6175  tlg2010-07-10t16.flac
     6:36.06       69868556 B   ---   --   ---xx   flac  0.6335  tlg2010-07-10t17.flac
   129:34.10     1371357868 B                            0.6099  (17 files)




More information about the bittorrent mailing list