[bittorrent] Lotus Wakarusa Ozark, Arkansas 6/3/2010

Automated Mailer noreply-bt.e at etree.org
Tue Jul 13 22:24:26 MDT 2010


Band:           Other
Torrent Name:   Lotus Wakarusa Ozark, Arkansas 6/3/2010
Uploaded by:    zmanatl
DB Link:        
Details:        http://bt.etree.org/details.php?id=536764

Contact the seeder at http://db.etree.org/zmanatl

If the link to this show does not work, it was probably removed for
being non-trade-friendly.

Description / text file:
-------------------------
Lotus
Wakarusa
Outpost Tent
Ozark, Arkansas
6/3/2010

Source: Schoeps CCM4V'S(din)>Lunatec V2>Benchmark AD2K>
Sound Devices 722 (24/48)
FOB/DFC/KFC/ZFC/AARP 30' From Stage, 7 1/2' High
DSP: Sound Devices 722>Sound Forge 9.0>CD Wave>flac(16)
Recorded By: Z-Man
Seeded By: Z-Man

Disc I 

01 Intro/Banter
02 ?
03 ? >
04 ?
05 ?

Disc II 

01 ?
02 ?
03 ?
04 ?
05 ?

Flac Fingerprint 

lotus2010-06-03d01t01.flac:d60525fb5da884dd2f3b9ae47835b1fd
lotus2010-06-03d01t02.flac:a131c6310a6c23a7b5d4e724d30c86b5
lotus2010-06-03d01t03.flac:341e219d510a9d70a2a25a9bd7c6b16f
lotus2010-06-03d01t04.flac:af22544cfec310097ebeb2a2b6a12c07
lotus2010-06-03d01t05.flac:c0daf51b7cd11508ed352ab1d5864d52
lotus2010-06-03d02t01.flac:eaa116f2438ef1ec80c3d8197700fa8f
lotus2010-06-03d02t02.flac:1bfcb86dca8b9e1eaa39ea16114abbe9
lotus2010-06-03d02t03.flac:3e8ccda411f1eb71ee01863e2932e796
lotus2010-06-03d02t04.flac:fb86fad7adbf2c60c3ea814b2611d8bd
lotus2010-06-03d02t05.flac:d60501f8064b983c6bfb71d43416e220

Shntool 

    length     expanded size    cdr  WAVE problems  fmt   ratio  filename
     0:28.66        5094476 B   ---   --   ---xx   flac  0.3892  lotus2010-06-03d01t01.flac
     9:59.63      105811820 B   ---   --   ---xx   flac  0.5285  lotus2010-06-03d01t02.flac
    12:33.61      132972716 B   ---   --   ---xx   flac  0.5013  lotus2010-06-03d01t03.flac
     7:54.40       83707724 B   ---   --   ---xx   flac  0.5192  lotus2010-06-03d01t04.flac
    13:49.64      146386172 B   ---   --   ---xx   flac  0.5280  lotus2010-06-03d01t05.flac
     6:26.32       68165708 B   ---   --   ---xx   flac  0.5158  lotus2010-06-03d02t01.flac
     6:12.58       65757260 B   ---   --   ---xx   flac  0.4936  lotus2010-06-03d02t02.flac
     7:02.45       74546684 B   ---   --   ---xx   flac  0.5172  lotus2010-06-03d02t03.flac
    13:45.44      145633532 B   ---   --   ---xx   flac  0.5055  lotus2010-06-03d02t04.flac
    14:47.65      156619724 B   ---   --   ---xx   flac  0.5111  lotus2010-06-03d02t05.flac
    93:02.13      984695816 B                            0.5130  (10 files)




More information about the bittorrent mailing list