[bittorrent] Band Of Horses - 2010-07-12 - War Memorial Auditorium - Nashville, TN.

Automated Mailer noreply-bt.e at etree.org
Tue Jul 13 00:28:35 MDT 2010


Band:           Other
Torrent Name:   Band Of Horses - 2010-07-12 - War Memorial Auditorium - Nashville, TN.
Uploaded by:    mmedley
DB Link:        
Details:        http://bt.etree.org/details.php?id=536742

Contact the seeder at http://db.etree.org/mmedley

If the link to this show does not work, it was probably removed for
being non-trade-friendly.

Description / text file:
-------------------------
Band Of Horses
2010-07-12
War Memorial Auditorium
Nashville, TN.


***16bit Source***


Source: Schoeps MK4V > KC5 > CMC6 > Sound Devices 722 (24bit/48kHz)
Location: FOB / DFC / Balcony Rail
Transfer: 722 > HDD > Wavelab 6.1 (Crystal Re-Sampler/MBit+ Dither/Fades) > CDWave > TLH > FLAC (8)
Taped, Transferred & Seeded by Martin Medley


One Set:

01. Intro
02. Infinite Arms
03. Ode To LRC
04. The Great Salt Lake
05. Islands On The Coast
06. NW Apt.
07. Is There A Ghost
08. Laredo
09. Older
10. Marry Song
11. Compliments
12. The General Specific
13. No One's Gonna Love You
14. Cigarettes, Wedding Bands
15. Wicked Gil
16. Happy Birthday Emmy
17. The Funeral

Encore:

18. Blue Beard
19. Factory
20. Weed Party
21. Monsters



shntool info:

    length     expanded size    cdr  WAVE problems  fmt   ratio  filename
     2:09.02       22760348 B   ---   --   ---xx   flac  0.4944  boh2010-07-12t01.flac
     5:52.49       62208092 B   ---   --   ---xx   flac  0.4310  boh2010-07-12t02.flac
     5:17.61       56062316 B   ---   --   ---xx   flac  0.5280  boh2010-07-12t03.flac
     5:36.16       59308076 B   ---   --   ---xx   flac  0.6088  boh2010-07-12t04.flac
     4:27.39       47190572 B   ---   --   ---xx   flac  0.6452  boh2010-07-12t05.flac
     3:12.58       34005260 B   ---   --   ---xx   flac  0.6485  boh2010-07-12t06.flac
     3:49.64       40546172 B   ---   --   ---xx   flac  0.6077  boh2010-07-12t07.flac
     4:13.12       44657468 B   ---   --   ---xx   flac  0.5764  boh2010-07-12t08.flac
     4:16.51       45278396 B   ---   --   ---xx   flac  0.5594  boh2010-07-12t09.flac
     4:24.19       46614332 B   ---   --   ---xx   flac  0.5913  boh2010-07-12t10.flac
     4:01.19       42557132 B   ---   --   ---xx   flac  0.5774  boh2010-07-12t11.flac
     3:41.06       38998556 B   ---   --   ---xx   flac  0.5987  boh2010-07-12t12.flac
     4:34.54       48460652 B   ---   --   ---xx   flac  0.5634  boh2010-07-12t13.flac
     4:57.16       52428476 B   ---   --   ---xx   flac  0.6335  boh2010-07-12t14.flac
     3:59.31       42232556 B   ---   --   ---xx   flac  0.6205  boh2010-07-12t15.flac
     1:13.05       12889004 B   ---   --   ---xx   flac  0.4950  boh2010-07-12t16.flac
    10:38.51      112663196 B   ---   --   ---xx   flac  0.5777  boh2010-07-12t17.flac
     3:46.08       39885260 B   ---   --   ---xx   flac  0.5729  boh2010-07-12t18.flac
     4:57.27       52454348 B   ---   --   ---xx   flac  0.5943  boh2010-07-12t19.flac
     4:13.17       44669228 B   ---   --   ---xx   flac  0.5896  boh2010-07-12t20.flac
     6:45.40       71536124 B   ---   --   ---xx   flac  0.5533  boh2010-07-12t21.flac
    96:07.45     1017405564 B                            0.5756  (21 files)




More information about the bittorrent mailing list