[bittorrent] The Grateful Dead 1987-07-24,26(shnids 92568,98214)

Automated Mailer noreply-bt.e at etree.org
Tue Jul 13 03:34:08 MDT 2010


Band:           Grateful Dead
Torrent Name:   The Grateful Dead 1987-07-24,26(shnids 92568,98214)
Uploaded by:    terralrps
DB Link:        
Details:        http://bt.etree.org/details.php?id=536743

Contact the seeder at http://db.etree.org/terralrps

If the link to this show does not work, it was probably removed for
being non-trade-friendly.

Description / text file:
-------------------------
http://db.etree.org/shninfo_detail.php?shnid=92568

http://db.etree.org/shninfo_detail.php?shnid=98214


Grateful Dead - July 24, 1987
Oakland Stadium - Oakland, CA ,USA

Recording Info:
Hat-Mounted Realistic PZM's with Sony WMD6-C
60 feet away,dead center
Maxell MX 90 No nr

Transfer Info:
Master>D6>HD>Audacity>CDWave>TLH>torrent

Taped and transferred by Russ Cansler

Notes:
-- Set 3 with Bob Dylan
-- Encores on the end of Set 1 to keep sets on single discs

Set 1:
d1t01 - Funiculi Funicula, Tico Tico
d1t02 - JackStraw
d1t03 - Mississippi Half Step
d1t04 - My Brother Esau
d1t05 - Friend of the Devil
d1t06 - Me and My Uncle
d1t07 - Big River
d1t08 - When Push Comes to Shove
d1t09 - Far From Me
d1t10 - Cassidy
d1t11 - Deal

Encore:
d1t12 - Touch of Grey
d1t13 - All Along the Watchtower
  
Set 2:
d2t01 - Tuning
d2t02 - Hell in a Bucket
d2t03 - Scarlet Begonias
d2t04 - Playin in the Band
d2t05 - Drums
d2t06 - Space
d2t07 - Uncle John's Band
d2t08 - Dear Mr. Fantasy
d2t09 - I Need a Miracle
d2t10 - Bertha
d2t11 - Sugar Magnolia
d2t12 - Sunshine Daydream
    
Set 3:
d3t01 - The Times They Are A Changin
d3t02 - Man Of Peace
d3t03 - Maggies Farm
d3t04 - I'll Be Your Baby Tonight
d3t05 - I Want You
d3t06 - Highway 61 Revisited
d3t07 - It's All Over Now,Baby Blue
d3t08 - Memphis Blues
d3t09 - Ballad of a Thin Man
d3t10 - Shelter From the Storm
d3t11 - Slow Train Coming
d3t12 - Knockin on Heavens Door

Bob Dylan:Guitar,Vocals CD 3 and encore
Jerry Garcia:Guitar,Vocals,Pedal Steel Guitar on d3t04
Bob Weir:Rhythm Guitar,Vocals
Phil Lesh:Bass Guitar,Vocals
Billy Kreutzmann:Drums
Micky Hart:Percussion
Brent Mydland:Keyboards,Vocals


SHNTOOL OUTPUT:
    length     expanded size    cdr  WAVE problems  fmt   ratio  filename
     3:34.26       37810796 B   ---   --   ---xx   flac  0.5247  gd87-07-24d1t01.flac
     5:56.18       62840780 B   ---   --   ---xx   flac  0.6677  gd87-07-24d1t02.flac
    10:40.07      112912508 B   ---   --   ---xx   flac  0.6307  gd87-07-24d1t03.flac
     5:03.56       53580956 B   ---   --   ---xx   flac  0.6352  gd87-07-24d1t04.flac
     8:22.13       88583420 B   ---   --   ---xx   flac  0.6354  gd87-07-24d1t05.flac
     3:06.45       32916284 B   ---   --   ---xx   flac  0.6663  gd87-07-24d1t06.flac
     5:32.13       58595420 B   ---   --   ---xx   flac  0.6655  gd87-07-24d1t07.flac
     5:20.21       56497436 B   ---   --   ---xx   flac  0.6248  gd87-07-24d1t08.flac
     4:26.73       47094140 B   ---   --   ---xx   flac  0.6429  gd87-07-24d1t09.flac
     6:52.69       72839132 B   ---   --   ---xx   flac  0.6329  gd87-07-24d1t10.flac
     8:10.05       86447804 B   ---   --   ---xx   flac  0.6481  gd87-07-24d1t11.flac
     6:24.23       67791740 B   ---   --   ---xx   flac  0.6544  gd87-07-24d1t12.flac
     6:26.48       68203340 B   ---   --   ---xx   flac  0.6504  gd87-07-24d1t13.flac
     2:21.43       24973580 B   ---   --   ---xx   flac  0.5290  gd87-07-24d2t01.flac
     5:40.45       60081884 B   ---   --   ---xx   flac  0.6722  gd87-07-24d2t02.flac
     7:38.57       80925308 B   ---   --   ---xx   flac  0.6363  gd87-07-24d2t03.flac
    10:33.71      111828236 B   ---   --   ---xx   flac  0.6206  gd87-07-24d2t04.flac
     6:34.10       69525164 B   ---   --   ---xx   flac  0.5500  gd87-07-24d2t05.flac
     6:14.05       65985404 B   ---   --   ---xx   flac  0.5138  gd87-07-24d2t06.flac
     7:11.29       76096652 B   ---   --   ---xx   flac  0.6227  gd87-07-24d2t07.flac
     6:23.09       67582412 B   ---   --   ---xx   flac  0.6313  gd87-07-24d2t08.flac
     3:35.27       37989548 B   ---   --   ---xx   flac  0.6474  gd87-07-24d2t09.flac
     7:03.73       74788940 B   ---   --   ---xx   flac  0.6481  gd87-07-24d2t10.flac
     6:12.63       65769020 B   ---   --   ---xx   flac  0.6545  gd87-07-24d2t11.flac
     2:52.21       30390236 B   ---   --   ---xx   flac  0.6371  gd87-07-24d2t12.flac
     6:18.68       66839180 B   ---   --   ---xx   flac  0.6203  gd87-07-24d3t01.flac
     4:40.16       49429676 B   ---   --   ---xx   flac  0.6361  gd87-07-24d3t02.flac
     5:10.16       54721676 B   ---   --   ---xx   flac  0.6594  gd87-07-24d3t03.flac
     5:09.02       54512348 B   ---   --   ---xx   flac  0.5851  gd87-07-24d3t04.flac
     4:41.01       49570796 B   ---   --   ---xx   flac  0.6348  gd87-07-24d3t05.flac
     4:48.30       50873804 B   ---   --   ---xx   flac  0.6630  gd87-07-24d3t06.flac
     6:22.51       67504796 B   ---   --   ---xx   flac  0.6268  gd87-07-24d3t07.flac
     6:31.16       69010076 B   ---   --   ---xx   flac  0.6451  gd87-07-24d3t08.flac
     6:07.36       64823516 B   ---   --   ---xx   flac  0.6392  gd87-07-24d3t09.flac
     5:42.70       60493484 B   ---   --   ---xx   flac  0.5991  gd87-07-24d3t10.flac
     5:32.19       58609532 B   ---   --   ---xx   flac  0.6181  gd87-07-24d3t11.flac
     8:56.33       94628060 B   ---   --   ---xx   flac  0.6085  gd87-07-24d3t12.flac
   222:19.28     2353067084 B                            0.6278  (37 files)


Grateful Dead and Bob Dylan
Sunday July 26th,1987
Anaheim Stadium
Anaheim,California,USA

Modified Nak 700's omni with
Sony D5
FOB Spread 6 feet apart
Maxell MX 90 nr dbx II

Recorded by Tazuo Yamaguchi and Jamie Poris
Transferred by Russ Cansler

Master>Nak CR-3A>dbx224>HD>Audacity>CDWave>TLH

notes:encore placed at end of disk 1
source for encore nak 300's w/ d5 2nd gen
numerous PHIL BOMBS during begining of Shakedown Street
begining of Mr Tambourine Man cut

Set 1  CD 1
01) tuning [00:09]
02) Aiko Aiko [05:47]
03) Minglewood Blues [08:27]
04) Tons of Steel [05:27]
05) West LA Fadeaway [08:16]
06) When I Paint My Masterpiece [03:36]
07) Mexicali Blues [04:33] tape flip
08) Bird Song [08:40]
09) Promised Land [04:19]
encore
10) Touch of Grey [06:13]
11) Knockin on Heavens' Door [06:29]
total 62:03

Set 2  CD 2
01) tuning [00:46]
02) Shakedown Street [11:37]
03) Looks Like Rain [08:15]
04) Terrapin Station [11:34]
05) Drums [09:02] tape flip
06) Space [06:40]
07) The Other One [05:51]
08) Stella Blue [07:05]
09) Throwin Stones [08:40]
10) Not Fade Away [08:45]
  total 78:21

Set 3  CD 3
01) /Mr Tambourine Man [05:10]
02) Deadman, Deadman [06:21]
03) Maggies Farm [05:03]
04) Simple Twist of Fate [06:05]
05) Watching the River Flow [04:18]
06) It's All Over Now,Baby Blue [06:35]
07) Chimes of Freedom [05:24] tape flip
08) tuning [01:50]
09) Queen Jane [04:15]
10) Memphis Blues [07:21]
11) Ballad of a Thin Man [06:47]
12) Rainy Day Women 12 and 35 [05:02]
13) Gotta Serve Somebody [06:11]
14) All Along the Watchtower [06:36]
   total 77:06

Jerry Garcia-Guitar,Vocals
Bob Weir-Guitar,Vocals
Phil Lesh-Bass
Billy Kreutzmann-Drums
Micky Hart-Percussion
Brent Mydland-Keyboards,Vocals
Bob Dylan-Guitar,Vocals on set 3 and encore

shntool 3.0.4
Copyright (C) 2000-2007 Jason Jordan 

    length     expanded size    cdr  WAVE problems  fmt   ratio  filename
     0:09.70        1752284 B   ---   --   ---xx   flac  0.5592  gdbd87-07-26d1t01.flac
     5:47.23       61264940 B   ---   --   ---xx   flac  0.6439  gdbd87-07-26d1t02.flac
     8:27.63       89583020 B   ---   --   ---xx   flac  0.6331  gdbd87-07-26d1t03.flac
     5:27.30       57753404 B   ---   --   ---xx   flac  0.6463  gdbd87-07-26d1t04.flac
     8:16.38       87583820 B   ---   --   ---xx   flac  0.6123  gdbd87-07-26d1t05.flac
     3:36.64       38252972 B   ---   --   ---xx   flac  0.6632  gdbd87-07-26d1t06.flac
     4:33.31       48230156 B   ---   --   ---xx   flac  0.6341  gdbd87-07-26d1t07.flac
     8:40.32       91803308 B   ---   --   ---xx   flac  0.5997  gdbd87-07-26d1t08.flac
     4:19.26       45748796 B   ---   --   ---xx   flac  0.6360  gdbd87-07-26d1t09.flac
     6:29.05       68631404 B   ---   --   ---xx   flac  0.6974  gdbd87-07-26d1t10.flac
     6:13.12       65825468 B   ---   --   ---xx   flac  0.7194  gdbd87-07-26d1t11.flac
     0:46.60        8255564 B   ---   --   ---xx   flac  0.4985  gdbd87-07-26d2t01.flac
    11:37.64      123101372 B   ---   --   ---xx   flac  0.6065  gdbd87-07-26d2t02.flac
     8:15.33       87395660 B   ---   --   ---xx   flac  0.5744  gdbd87-07-26d2t03.flac
    11:34.25      122480444 B   ---   --   ---xx   flac  0.6005  gdbd87-07-26d2t04.flac
     9:02.58       95745260 B   ---   --   ---xx   flac  0.5567  gdbd87-07-26d2t05.flac
     6:40.06       70574156 B   ---   --   ---xx   flac  0.5295  gdbd87-07-26d2t06.flac
     5:51.28       61982300 B   ---   --   ---xx   flac  0.6329  gdbd87-07-26d2t07.flac
     7:05.66       75125276 B   ---   --   ---xx   flac  0.5769  gdbd87-07-26d2t08.flac
     8:40.27       91791548 B   ---   --   ---xx   flac  0.6569  gdbd87-07-26d2t09.flac
     8:45.01       92612396 B   ---   --   ---xx   flac  0.6415  gdbd87-07-26d2t10.flac
     5:10.46       54792236 B   ---   --   ---xx   flac  0.6100  gdbd87-07-26d3t01.flac
     6:21.23       67262540 B   ---   --   ---xx   flac  0.6025  gdbd87-07-26d3t02.flac
     5:03.52       53571548 B   ---   --   ---xx   flac  0.6191  gdbd87-07-26d3t03.flac
     6:05.49       64501292 B   ---   --   ---xx   flac  0.5709  gdbd87-07-26d3t04.flac
     4:18.65       45664124 B   ---   --   ---xx   flac  0.6473  gdbd87-07-26d3t05.flac
     6:35.52       69800348 B   ---   --   ---xx   flac  0.5964  gdbd87-07-26d3t06.flac
     5:24.01       57155996 B   ---   --   ---xx   flac  0.6201  gdbd87-07-26d3t07.flac
     1:50.00       19404044 B   ---   --   ---xx   flac  0.4394  gdbd87-07-26d3t08.flac
     4:15.28       45047900 B   ---   --   ---xx   flac  0.5870  gdbd87-07-26d3t09.flac
     7:21.00       77792444 B   ---   --   ---xx   flac  0.6281  gdbd87-07-26d3t10.flac
     6:47.52       71917148 B   ---   --   ---xx   flac  0.6083  gdbd87-07-26d3t11.flac
     5:02.03       53279900 B   ---   --   ---xx   flac  0.6326  gdbd87-07-26d3t12.flac
     6:11.74       65618492 B   ---   --   ---xx   flac  0.6127  gdbd87-07-26d3t13.flac
     6:36.40       69948524 B   ---   --   ---xx   flac  0.6592  gdbd87-07-26d3t14.flac
   217:25.47     2301250084 B                            0.6158  (35 files)




More information about the bittorrent mailing list