[bittorrent] gd87-09-24.sbd.miller.92506.sbeok.flac16

Automated Mailer noreply-bt.e at etree.org
Fri Jul 9 11:58:27 MDT 2010


Band:           Grateful Dead
Torrent Name:   gd87-09-24.sbd.miller.92506.sbeok.flac16
Uploaded by:    WHARFRAT73
DB Link:        http://db.etree.org/shn/92506
Details:        http://bt.etree.org/details.php?id=536621

Contact the seeder at http://db.etree.org/WHARFRAT73

If the link to this show does not work, it was probably removed for
being non-trade-friendly.

Description / text file:
-------------------------
Grateful Dead - September 24, 1987
The Spectrum - Philadelphia, PA

Recording Info:
Set 1: SBD -> PCM -> Dat -> CD
Set 2: SBD -> PCM -> Dat (44.1k)

Transfer Info:
Set 1: CD -> Samplitude Professional v10.02 -> FLAC
Set 2: Dat -> Sound Devices 744T -> Samplitude Professional v10.02 -> FLAC
(2 Discs Audio / 2 Discs FLAC)

All Transfers and Mastering By Charlie Miller
charliemiller87 at earthlink.net
June 30, 2008

Notes:
-- Disc change is seamless
-- This source has a complete Touch Of Grey
-- Diginoise in High Time has been cleaned up

Set 1:
d1t01 - Touch Of Grey ->
d1t02 - New Minglewood Blues
d1t03 - High Time
d1t04 - Me And My Uncle ->
d1t05 - Mexicali Blues Tease ->
d1t06 - Big River
d1t07 - Big Boss Man
d1t08 - My Brother Esau
d1t09 - Bird Song ->
d1t10 - The Promised Land

Set 2:
d1t11 - Box Of Rain ->
d1t12 - Iko Iko
d2t01 - Hell In A Bucket ->
d2t02 - Fire On The Mountain ->
d2t03 - Drums ->
d2t04 - Space ->
d2t05 - The Other One ->
d2t06 - Black Peter ->
d2t07 - Throwing Stones ->
d2t08 - Turn On Your Lovelight

Encore:
d2t09 - Knockin' On Heaven's Door


SHNTOOL OUTPUT:
    length     expanded size   cdr  WAVE problems filename
    length     expanded size   cdr  WAVE problems filename
     6:43.02       71093948    ---   --   -----   gd87-09-24d1t01.wav
     9:14.01       97727996    ---   --   -----   gd87-09-24d1t02.wav
     8:53.18       94063580    ---   --   -----   gd87-09-24d1t03.wav
     3:08.02       33167948    ---   --   -----   gd87-09-24d1t04.wav
     0:37.47        6637388    ---   --   -----   gd87-09-24d1t05.wav
     4:27.52       47221148    ---   --   -----   gd87-09-24d1t06.wav
     8:43.37       92344268    ---   --   -----   gd87-09-24d1t07.wav
     4:29.03       47458700    ---   --   -----   gd87-09-24d1t08.wav
    10:20.04      109377452    ---   --   -----   gd87-09-24d1t09.wav
     4:31.72       47973788    ---   --   -----   gd87-09-24d1t10.wav
     5:07.68       54314780    ---   --   -----   gd87-09-24d1t11.wav
     6:35.11       69703916    ---   --   -----   gd87-09-24d1t12.wav
     6:38.55       70336604    ---   --   -----   gd87-09-24d2t01.wav
     9:42.16      102702476    ---   --   -----   gd87-09-24d2t02.wav
    10:17.43      108939980    ---   --   -----   gd87-09-24d2t03.wav
     5:57.56       63106556    ---   --   -----   gd87-09-24d2t04.wav
     9:50.57      104210108    ---   --   -----   gd87-09-24d2t05.wav
     8:12.14       86821772    ---   --   -----   gd87-09-24d2t06.wav
     9:02.73       95780540    ---   --   -----   gd87-09-24d2t07.wav
     7:46.19       82247132    ---   --   -----   gd87-09-24d2t08.wav
     8:47.58       93099260    ---   --   -----   gd87-09-24d2t09.wav
   149:07.33     1578329340 B                     (totals for 21 files)




More information about the bittorrent mailing list