[bittorrent] Furthur 2010-06-30 LeLacheur Park Lowell, MA FOB Schoeps MK41/CMC6>Sonosax>Apogee Mini-me

Automated Mailer noreply-bt.e at etree.org
Sun Jul 4 09:45:50 MDT 2010


Band:           Furthur
Torrent Name:   Furthur 2010-06-30 LeLacheur Park Lowell, MA FOB Schoeps MK41/CMC6>Sonosax>Apogee Mini-me
Uploaded by:    andyjah
DB Link:        
Details:        http://bt.etree.org/details.php?id=536487

Contact the seeder at http://db.etree.org/andyjah

If the link to this show does not work, it was probably removed for
being non-trade-friendly.

Description / text file:
-------------------------
Furthur
2010-06-30
LeLacheur Park
Lowell, MA

Recorded and transferred by Andy Murray

DINa FOB 60' from stage just left of center
Schoeps MK41>KC5>CMC6>Sonosax SX-M2>Apogee Mini-me(aes out at 24 bit/96khz)>COAX>Edirol R-44
SD-HC Card>USB>Soundforge 10(tracking,fades,normalize,resample/dither to 16 bit/44.1 khz)>FLAC Level 8(sector alignment)

Phil Lesh - bass
Bob Weir - guitar & vocals
Jeff Chimenti - keyboards
John Kadlecik - guitar & vocals
Joe Russo - drums
Jeff Pearson - vocals
Sunshine Becker - vocals

3 Discs
2 Sets

Disc 1:
Set 1:

01 Intro
02 Mississippi Halfstep
03 Friend Of The Devil
04 Tennessee Jed
05 Deal
06 Bertha
07 New Minglewood
08 Doin' That Rag

Disc 2:
Set 1 cont...

01 Sugaree

Set 2:

02 Intro
03 Chinacat Sunflower>
04 Colors of the Rain>
05 Slipknot>
06 The Other One>
07 The Eleven>
08 Fire On The Mountain>


Disc 3:
Set 2 cont...

01 The Wheel>
02 So Many Roads>
03 Playing in the Band
04 I know you Rider

Encore:

05 Donor Rap
06 Ripple

    length     expanded size   cdr  WAVE problems filename
     1:11.38       12613820    ---   --   -----   furthur2010-06-30_mk41_1644_d1t01.wav
    12:58.58      137375660    ---   --   -----   furthur2010-06-30_mk41_1644_d1t02.wav
     6:30.54       68923052    ---   --   -----   furthur2010-06-30_mk41_1644_d1t03.wav
     9:18.36       98515916    ---   --   -----   furthur2010-06-30_mk41_1644_d1t04.wav
    10:10.37      107691068    ---   --   -----   furthur2010-06-30_mk41_1644_d1t05.wav
     9:24.10       99513164    ---   --   -----   furthur2010-06-30_mk41_1644_d1t06.wav
     9:33.67      101234828    ---   --   -----   furthur2010-06-30_mk41_1644_d1t07.wav
     9:05.66       96293276    ---   --   -----   furthur2010-06-30_mk41_1644_d1t08.wav
    14:08.20      149634284    ---   --   -----   furthur2010-06-30_mk41_1644_d2t01.wav
     0:59.10       10431164    ---   --   -----   furthur2010-06-30_mk41_1644_d2t02.wav
     7:18.20       77310284    ---   --   -----   furthur2010-06-30_mk41_1644_d2t03.wav
     8:22.11       88578716    ---   --   -----   furthur2010-06-30_mk41_1644_d2t04.wav
     5:04.73       53797340    ---   --   -----   furthur2010-06-30_mk41_1644_d2t05.wav
    13:44.16      145391276    ---   --   -----   furthur2010-06-30_mk41_1644_d2t06.wav
    10:11.24      107836892    ---   --   -----   furthur2010-06-30_mk41_1644_d2t07.wav
    10:35.28      112079900    ---   --   -----   furthur2010-06-30_mk41_1644_d2t08.wav
    11:16.08      119265260    ---   --   -----   furthur2010-06-30_mk41_1644_d3t01.wav
     8:19.12       88051868    ---   --   -----   furthur2010-06-30_mk41_1644_d3t02.wav
    13:20.40      141214124    ---   --   -----   furthur2010-06-30_mk41_1644_d3t03.wav
    12:25.03      131425100    ---   --   -----   furthur2010-06-30_mk41_1644_d3t04.wav
     2:23.56       25356956    ---   --   -----   furthur2010-06-30_mk41_1644_d3t05.wav
     5:52.04       62102252    ---   --   -----   furthur2010-06-30_mk41_1644_d3t06.wav
   192:14.16     2034636200 B                     (totals for 22 files, 1.0000 overall compression ratio)




More information about the bittorrent mailing list