[bittorrent] Phish 07/02/2010

Automated Mailer noreply-bt.e at etree.org
Sat Jul 3 23:14:12 MDT 2010


Band:           Phish
Torrent Name:   Phish 07/02/2010 
Uploaded by:    datdork
DB Link:        
Details:        http://bt.etree.org/details.php?id=536471

Contact the seeder at http://db.etree.org/datdork

If the link to this show does not work, it was probably removed for
being non-trade-friendly.

Description / text file:
-------------------------
Phish
07/02/2010
Verizon Wireless Amphitheater
Charlotte, NC

source:   Neumann ak40 > lc3 > km100 (din) > Lunatec V3 > Edirol R-44 @ 24/48
location: first row OTS just LOC
transfer: SDHC card > PC > wavelab 6.1 > cd wave > traders little helper (flac level 8)

all editing (fades, Crystal Resampler (high), dither w/ iZotope Ozone 4) done in wavelab 6.1

*16bit/44.1khz fileset*

recorded and transferred by Gordon Wilson

A Team Dirty South Recording

Set One:

01. Intro
02. Buried Alive
03. AC/DC Bag
04. Vultures
05. Wolfman's Brother
06. Back On The Train
07. The Wedge
08. Mexican Cousin
09. Stash
10. Sparkle
11. Chalkdust Torture

Set Two:

01. Intro
02. Drowned->
03. 46 Days->
04. Twenty Years Later
05. The Lizards
06. Carini->
07. Fuck Your Face->
08. Also Sprach Zarathustra
09. You Enjoy Myself >
10. Proud Mary Vocal Jam * 

Encore:
11. A Day In The Life

* also included "Get Back" verse/tease
last Fuck Your Face 04/29/1987 (1,413 shows)
suggested disc split for set two after track 05


shntool 3.0.4
Copyright (C) 2000-2007 Jason Jordan <shnutils at freeshell.org>

    length     expanded size    cdr  WAVE problems  fmt   ratio  filename
     1:30.65       16028924 B   ---   --   ---xx   flac  0.4215  phish2010-07-02s1t01.flac
     2:39.30       28118204 B   ---   --   ---xx   flac  0.5241  phish2010-07-02s1t02.flac
     6:45.67       71599628 B   ---   --   ---xx   flac  0.5465  phish2010-07-02s1t03.flac
     6:22.00       67384844 B   ---   --   ---xx   flac  0.5405  phish2010-07-02s1t04.flac
     8:51.46       93776636 B   ---   --   ---xx   flac  0.5412  phish2010-07-02s1t05.flac
    10:06.59      107037212 B   ---   --   ---xx   flac  0.5547  phish2010-07-02s1t06.flac
     7:06.02       75151148 B   ---   --   ---xx   flac  0.5451  phish2010-07-02s1t07.flac
     4:27.50       47216444 B   ---   --   ---xx   flac  0.5272  phish2010-07-02s1t08.flac
    11:54.55      126079004 B   ---   --   ---xx   flac  0.5283  phish2010-07-02s1t09.flac
     4:00.15       42371324 B   ---   --   ---xx   flac  0.5454  phish2010-07-02s1t10.flac
     8:18.30       87917804 B   ---   --   ---xx   flac  0.5774  phish2010-07-02s1t11.flac
     0:53.24        9405692 B   ---   --   ---xx   flac  0.4155  phish2010-07-02s2t01.flac
    12:44.31      134842556 B   ---   --   ---xx   flac  0.5772  phish2010-07-02s2t02.flac
     7:15.66       76889276 B   ---   --   ---xx   flac  0.5742  phish2010-07-02s2t03.flac
     7:51.53       83209100 B   ---   --   ---xx   flac  0.5465  phish2010-07-02s2t04.flac
    10:34.14      111870572 B   ---   --   ---xx   flac  0.5162  phish2010-07-02s2t05.flac
     5:06.02       53983148 B   ---   --   ---xx   flac  0.6051  phish2010-07-02s2t06.flac
     4:00.72       42505388 B   ---   --   ---xx   flac  0.5814  phish2010-07-02s2t07.flac
     6:55.31       73278956 B   ---   --   ---xx   flac  0.5515  phish2010-07-02s2t08.flac
    18:30.06      195818156 B   ---   --   ---xx   flac  0.5335  phish2010-07-02s2t09.flac
     6:06.36       64647116 B   ---   --   ---xx   flac  0.4672  phish2010-07-02s2t10.flac
     6:41.72       70905788 B   ---   --   ---xx   flac  0.5116  phish2010-07-02s2t11.flac
   158:44.01     1680036920 B                            0.5425  (22 files)




More information about the bittorrent mailing list