[bittorrent] gd87-08-11.sbd.miller.92056.sbeok.flac16

Automated Mailer noreply-bt.e at etree.org
Sat Jul 3 08:50:58 MDT 2010


Band:           Grateful Dead
Torrent Name:   gd87-08-11.sbd.miller.92056.sbeok.flac16
Uploaded by:    WHARFRAT73
DB Link:        http://db.etree.org/shn/92056
Details:        http://bt.etree.org/details.php?id=536453

Contact the seeder at http://db.etree.org/WHARFRAT73

If the link to this show does not work, it was probably removed for
being non-trade-friendly.

Description / text file:
-------------------------
Grateful Dead - August 11, 1987
Red Rocks Amphitheatre - Morrison, CO

Recording Info:
SBD -> PCM -> Sonic Solutions -> CD

Transfer Info:
CD -> Samplitude Professional v10.02 -> FLAC
(2 Discs Audio / 2 Discs FLAC)

Original Transfer and Mastering by David Gans
Additional Transfer and Mastering By Charlie Miller
charliemiller87 at earthlink.net
May 30, 2008

Notes:
-- Disc change is seamless
-- This is basically a remaster of shnid=14944
-- There is some weirdness in the UltraMatrix mix during Cold Rain And snow

Set 1:
d1t01 - Cold Rain and Snow ->
d1t02 - Little Red Rooster
d1t03 - Tons Of Steel
d1t04 - High Time
d1t05 - When I Paint My Masterpiece
d1t06 - When Push Comes To Shove
d1t07 - Let It Grow

Set 2:
d1t08 - Crazy Fingers ->
d1t09 - Samson and Delilah
d1t10 - Ship Of Fools
d2t01 - Playing In The Band ->
d2t02 - China Doll ->
d2t03 - Drums ->
d2t04 - Space ->
d2t05 - All Along The Watchtower ->
d2t06 - Going Down The Road Feeling Bad ->
d2t07 - Around and Around ->
d2t08 - Sugar Magnolia

Encore:
d2t09 - Black Muddy River


SHNTOOL OUTPUT:
    length     expanded size   cdr  WAVE problems filename
     5:58.27       63214748    ---   --   -----   gd87-08-11d1t01.wav
     7:58.38       84408620    ---   --   -----   gd87-08-11d1t02.wav
     5:08.10       54354764    ---   --   -----   gd87-08-11d1t03.wav
     7:03.11       74643116    ---   --   -----   gd87-08-11d1t04.wav
     4:23.07       46409708    ---   --   -----   gd87-08-11d1t05.wav
     5:02.35       53355164    ---   --   -----   gd87-08-11d1t06.wav
    12:57.07      137079308    ---   --   -----   gd87-08-11d1t07.wav
     8:01.20       84895484    ---   --   -----   gd87-08-11d1t08.wav
     6:21.18       67250780    ---   --   -----   gd87-08-11d1t09.wav
     8:23.54       88856252    ---   --   -----   gd87-08-11d1t10.wav
     8:12.23       86842940    ---   --   -----   gd87-08-11d2t01.wav
     5:22.36       56885516    ---   --   -----   gd87-08-11d2t02.wav
     8:26.27       89321948    ---   --   -----   gd87-08-11d2t03.wav
     7:25.45       78603884    ---   --   -----   gd87-08-11d2t04.wav
     4:50.26       51217196    ---   --   -----   gd87-08-11d2t05.wav
     6:26.02       68095148    ---   --   -----   gd87-08-11d2t06.wav
     3:45.10       39713564    ---   --   -----   gd87-08-11d2t07.wav
     9:15.40       97996124    ---   --   -----   gd87-08-11d2t08.wav
     6:32.42       69247628    ---   --   -----   gd87-08-11d2t09.wav
   131:33.28     1392391892 B                     (totals for 19 files)




More information about the bittorrent mailing list