[bittorrent] Phish 2010-06-29 CMAC Canandaigua, NY Schoeps MK41/CMC6>Sonosax>Apogee Mini-me

Automated Mailer noreply-bt.e at etree.org
Fri Jul 2 22:19:03 MDT 2010


Band:           Phish
Torrent Name:   Phish 2010-06-29 CMAC Canandaigua, NY Schoeps MK41/CMC6>Sonosax>Apogee Mini-me
Uploaded by:    andyjah
DB Link:        
Details:        http://bt.etree.org/details.php?id=536444

Contact the seeder at http://db.etree.org/andyjah

If the link to this show does not work, it was probably removed for
being non-trade-friendly.

Description / text file:
-------------------------
Phish
CMAC Performing Arts Center
Canandaigua, NY
2010-06-29

Recorded and transferred by Andy Murray

DINa from the OTS first row behind the soundboard
Schoeps MK41>KC5>CMC6>Sonosax SX-M2>Apogee Mini-me(aes out at 24 bit/96khz)>COAX>Edirol R-44
SD-HC Card>USB>Soundforge 10(tracking,fades,normalize,resample/dither to 16bit/44.1 khz)>FLAC Level 8(sector alignment)

2 Discs
2 Sets

Disc 1:
Set 1:

01 Intro
02 The Connection
03 Down With Disease
04 Sample In A Jar
05 Ocelot
06 Reba
07 Horn 
08 Funky Bitch
09 Undermind
10 The Ballad Of Curtis Loew

Disc 2:
Set 1 cont...

01 David Bowie

Set 2:

02 Intro
03 Possum
04 Mike's Song>
05 Simple>
06 I Am The Walrus>
07 Weekapaug Groove
08 Limb By Limb
09 Joy 

Disc 3:
Set 2 cont...

01 Harry Hood
02 Golgi Apparatus

Encore:

03 First Tube

    length     expanded size   cdr  WAVE problems filename
     2:06.52       22348748    ---   --   -----   ph2010-06-29_mk41_1644_d1t01.wav
     6:10.20       65315084    ---   --   -----   ph2010-06-29_mk41_1644_d1t02.wav
     9:33.07      101093708    ---   --   -----   ph2010-06-29_mk41_1644_d1t03.wav
     6:49.69       72309932    ---   --   -----   ph2010-06-29_mk41_1644_d1t04.wav
    10:15.59      108624812    ---   --   -----   ph2010-06-29_mk41_1644_d1t05.wav
    13:34.04      143599052    ---   --   -----   ph2010-06-29_mk41_1644_d1t06.wav
     3:49.04       40405052    ---   --   -----   ph2010-06-29_mk41_1644_d1t07.wav
     6:06.26       64623596    ---   --   -----   ph2010-06-29_mk41_1644_d1t08.wav
     9:20.39       98875772    ---   --   -----   ph2010-06-29_mk41_1644_d1t09.wav
     6:10.15       65303324    ---   --   -----   ph2010-06-29_mk41_1644_d1t10.wav
    13:53.55      147070604    ---   --   -----   ph2010-06-29_mk41_1644_d2t01.wav
     0:36.54        6477452    ---   --   -----   ph2010-06-29_mk41_1644_d2t02.wav
     9:02.59       95747612    ---   --   -----   ph2010-06-29_mk41_1644_d2t03.wav
     9:30.32      100623308    ---   --   -----   ph2010-06-29_mk41_1644_d2t04.wav
     9:54.68      104941580    ---   --   -----   ph2010-06-29_mk41_1644_d2t05.wav
     7:13.53       76505900    ---   --   -----   ph2010-06-29_mk41_1644_d2t06.wav
     9:12.33       97450460    ---   --   -----   ph2010-06-29_mk41_1644_d2t07.wav
     8:08.61       86226716    ---   --   -----   ph2010-06-29_mk41_1644_d2t08.wav
     5:56.27       62861948    ---   --   -----   ph2010-06-29_mk41_1644_d2t09.wav
    12:00.07      127024508    ---   --   -----   ph2010-06-29_mk41_1644_d3t01.wav
     6:55.22       73257788    ---   --   -----   ph2010-06-29_mk41_1644_d3t02.wav
     9:50.36      104160716    ---   --   -----   ph2010-06-29_mk41_1644_d3t03.wav
   176:11.52     1864847672 B                     (totals for 22 files, 1.0000 overall compression ratio)




More information about the bittorrent mailing list