[bittorrent] gd74-06-22.90200.sbd.miller.sbeok.t-flac16

Automated Mailer noreply-bt.e at etree.org
Fri Jul 2 10:43:16 MDT 2010


Band:           Grateful Dead
Torrent Name:   gd74-06-22.90200.sbd.miller.sbeok.t-flac16
Uploaded by:    germain
DB Link:        http://db.etree.org/shn/90200
Details:        http://bt.etree.org/details.php?id=536429

Contact the seeder at http://db.etree.org/germain

If the link to this show does not work, it was probably removed for
being non-trade-friendly.

Description / text file:
-------------------------
This is a tagged version of shnid: 90200

Grateful Dead 
June 22, 1974
Jai-Alai Fronton 
Miami, FL
gd74-06-22.sbd.miller.90200.sbeok.flac16

Recording Info:
SBD -> Master Reel -> Cassette -> Dat -> CD

Transfer Info:
CD -> Samplitude Professional v10.02 -> Adobe Audition v1.5 -> FLAC
(3 Discs Audio / 2 Discs FLAC)

All Transfers and Mastering By Charlie Miller
charliemiller87 at earthlink.net
February 25, 2008

Patch Info:
Alternate SBD Source supplies:
Playing In The Band (8:39 - 9:23)
Johnny B. Goode (complete track)
Some between song banter

(FOB) AKG D-1000E -> Master Cassette -> Dat -> CD (shnid=14193) supplies:
Playing In The Band (8:35 - 8:39) (9:23 - 9:26) (set break announcement)
Wharf Rat (8:56 - 9:14)

Notes:
-- All disc changes are seamless
-- Ramble On Rose tease after El Paso
-- Patch source recorded by Jerry Moore 
-- Thanks to Joe B. Jones for his help with the pitch correction
_____________________________________________________________________________

--Set 1--
101-d1t01 - The Promised Land ->
102-d1t02 - Bertha ->
103-d1t03 - Greatest Story Ever Told
104-d1t04 - Deal
105-d1t05 - Me & Bobby McGee
106-d1t06 - Scarlet Begonias
107-d1t07 - Jack Straw
108-d1t08 - Loose Lucy
109-d1t09 - Mexicali Blues
110-d1t10 - Sugaree
111-d1t11 - The Race Is On
112-d1t12 - It Must Have Been The Roses
113-d2t01 - Playing in the Band

--Set 2--
201-d2t02 - China Cat Sunflower ->
202-d2t03 - I Know You Rider
203-d2t04 - Me & My Uncle
204-d2t05 - Ship Of Fools
205-d2t06 - El Paso
205-d3t01 - Eyes of the World ->
206-d3t02 - Wharf Rat ->
207-d3t03 - Sugar Magnolia

--Encore--
208-d3t04 - Johnny B. Goode
_____________________________________________________________________________

Tagging notes:
Show information is embedded within the header of each flac file. 
It will display on any player capable of directly playing flac 
files. If converted to wav during processing, all tags will be 
stripped, however audio data will remain unaffected. If you must 
transcode to a lossy format, do so directly Flac > Lossy.
Use ffp to validate audio integrity.
Md5 values will change if tagging is altered.
B. Proctor 2-3-09
_____________________________________________________________________________


SHNTOOL OUTPUT:
    length     expanded size   cdr  WAVE problems filename
     3:22.33       35710460    ---   --   -----   gd74-06-22d1t01.wav
     5:18.46       56203436    ---   --   -----   gd74-06-22d1t02.wav
     5:43.41       60601676    ---   --   -----   gd74-06-22d1t03.wav
     5:22.10       56824364    ---   --   -----   gd74-06-22d1t04.wav
     5:53.74       62443292    ---   --   -----   gd74-06-22d1t05.wav
     6:55.74       73380092    ---   --   -----   gd74-06-22d1t06.wav
     4:45.60       50415164    ---   --   -----   gd74-06-22d1t07.wav
     4:41.52       49690748    ---   --   -----   gd74-06-22d1t08.wav
     3:23.45       35915084    ---   --   -----   gd74-06-22d1t09.wav
     7:17.29       77155052    ---   --   -----   gd74-06-22d1t10.wav
     3:19.63       35251820    ---   --   -----   gd74-06-22d1t11.wav
     5:31.50       58506044    ---   --   -----   gd74-06-22d1t12.wav
    28:48.39      304910972    ---   --   -----   gd74-06-22d2t01.wav
     9:51.29      104320652    ---   --   -----   gd74-06-22d2t02.wav
     5:38.72       59792588    ---   --   -----   gd74-06-22d2t03.wav
     3:13.39       34136972    ---   --   -----   gd74-06-22d2t04.wav
     6:09.11       65117516    ---   --   -----   gd74-06-22d2t05.wav
     4:39.63       49363820    ---   --   -----   gd74-06-22d2t06.wav
    15:14.47      161340188    ---   --   -----   gd74-06-22d3t01.wav
     9:51.51      104372396    ---   --   -----   gd74-06-22d3t02.wav
     9:28.73      100366940    ---   --   -----   gd74-06-22d3t03.wav
     3:44.03       39520700    ---   --   -----   gd74-06-22d3t04.wav
   158:17.29     1675339976 B                     (totals for 22 files)




More information about the bittorrent mailing list