[bittorrent] gd1986-06-22.sbd.walker-scotton-miller.81646.sbeok.flac16

Automated Mailer noreply-bt.e at etree.org
Tue Mar 31 14:37:53 MDT 2009


Band:           Grateful Dead
Torrent Name:   gd1986-06-22.sbd.walker-scotton-miller.81646.sbeok.flac16
Uploaded by:    sanguine1
DB Link:        http://db.etree.org/shn/81646
Details:        http://bt.etree.org/details.php?id=523855

Contact the seeder at http://db.etree.org/sanguine1

If the link to this show does not work, it was probably removed for
being non-trade-friendly.

Description / text file:
-------------------------
Grateful Dead - June 22, 1986
Greek Theatre - Berkeley, CA
University Of California

Recording Info:
SBD -> Cassette Master (Sony D5/Maxell MX-90)

Transfer Info:
Cassette Master (Tascam 122mkII) -> Apogee MiniMe (24bit/48k) ->
Samplitude Professional v8.01 -> FLAC/16
(3 Discs Audio / 2 Discs FLAC)

All Transfers and Mastering By Charlie Miller
charliemiller87 at earthlink.net 
December 17, 2006

Patch Info:
Neumann KMi84 -> PCM -> Dat -> CD supplies:
Space (0:13 - 0:22)

Notes:
-- Set 2 is seamless
-- Thanks to Paul Scotton and Joani Walker for the Cassettes

Set 1:
d1t01 - Tuning
d1t02 - Jack Straw
d1t03 - It Must Have Been The Roses
d1t04 - Cassidy
d1t05 - Row Jimmy
d1t06 - New Minglewood Blues
d1t07 - Big Railroad Blues
d1t08 - Mama Tried ->
d1t09 - Big River
d1t10 - Stagger Lee
d1t11 - Hell In A Bucket ->
d1t12 - Might As Well

Set 2:
d2t01 - Fire On The Mountain ->
d2t02 - Samson And Delilah
d2t03 - Ship Of Fools ->
d2t04 - Man Smart (Woman Smarter) ->
d2t05 - Drums ->
d3t01 - Space ->
d3t02 - Truckin' ->
d3t03 - Goin' Down The Road Feeling Bad ->
d3t04 - Stella Blue ->
d3t05 - Turn On Your Lovelight

Encore:
d3t06 - Crowd/Tuning
d3t07 - U.S. Blues
d3t08 - Box Of Rain


SHNTOOL OUTPUT:
    length     expanded size   cdr  WAVE problems filename
     1:22.19       14509532    ---   --   -----   gd86-06-22d1t01.wav
     5:31.71       58555436    ---   --   -----   gd86-06-22d1t02.wav
     6:35.61       69821516    ---   --   -----   gd86-06-22d1t03.wav
     7:14.14       76590572    ---   --   -----   gd86-06-22d1t04.wav
    10:26.31      110499356    ---   --   -----   gd86-06-22d1t05.wav
     7:00.37       74175068    ---   --   -----   gd86-06-22d1t06.wav
     6:22.49       67500092    ---   --   -----   gd86-06-22d1t07.wav
     2:26.54       25881452    ---   --   -----   gd86-06-22d1t08.wav
     5:00.41       53016476    ---   --   -----   gd86-06-22d1t09.wav
     5:36.04       59279852    ---   --   -----   gd86-06-22d1t10.wav
     6:00.31       63576956    ---   --   -----   gd86-06-22d1t11.wav
     4:28.50       47392844    ---   --   -----   gd86-06-22d1t12.wav
    10:35.35      112096364    ---   --   -----   gd86-06-22d2t01.wav
     9:06.25       96373244    ---   --   -----   gd86-06-22d2t02.wav
     7:30.71       79547036    ---   --   -----   gd86-06-22d2t03.wav
     7:58.60       84460364    ---   --   -----   gd86-06-22d2t04.wav
    11:39.08      123322460    ---   --   -----   gd86-06-22d2t05.wav
    13:13.35      139967564    ---   --   -----   gd86-06-22d3t01.wav
     6:43.57       71223308    ---   --   -----   gd86-06-22d3t02.wav
     5:35.47       59204588    ---   --   -----   gd86-06-22d3t03.wav
     8:19.16       88061276    ---   --   -----   gd86-06-22d3t04.wav
     8:59.01       95081996    ---   --   -----   gd86-06-22d3t05.wav
     0:26.40        4680524    ---   --   -----   gd86-06-22d3t06.wav
     6:37.56       70162556    ---   --   -----   gd86-06-22d3t07.wav
     5:06.04       53987852    ---   --   -----   gd86-06-22d3t08.wav
   169:58.17     1798968284 B                     (totals for 25 files)




More information about the bittorrent mailing list