[bittorrent] Shoefly Beachland Tavern Cleveland, Ohio 3/27/2009

Automated Mailer noreply-bt.e at etree.org
Sat Mar 28 14:27:38 MDT 2009


Band:           Other
Torrent Name:   Shoefly Beachland Tavern Cleveland, Ohio 3/27/2009
Uploaded by:    zmanatl
DB Link:        
Details:        http://bt.etree.org/details.php?id=523747

Contact the seeder at http://db.etree.org/zmanatl

If the link to this show does not work, it was probably removed for
being non-trade-friendly.

Description / text file:
-------------------------
Shoe Fly
Beachland Tavern
Cleveland, Ohio
3/27/2009

Source: Schoeps CCM4V'S(din)>Lunatec V2>Benchmark AD2K>
Sound Devices 722 (24/48)
Location: FOB/DFRC/KFC/ZFC/AARP 5' From Stage 4 1/2' High 
DSP: Sound Devices 722>Sound Forge 9.0>CD Wave>flac(16)
Recorded By: Z-Man
Seeded By: Z-Man
 
Disc I 

01 Sea Of Life
02 I Come Runnin'
03 Kinda Fool We All Have Been
04 Blue Railroad Train
05 The Rocky Road Of Love
06 So Lonely At Midnight For You
07 8 More Miles To Louisville
08 ?
09 Nora Lee

Shoe Fly:

Paul Kovac - Guitar, Banjo, and Vocals
Sharon Leahy - Clogging, and Vocals
Rick Good - Guitar, Banjo, and Vocals

Flac fingerprint 

shoefly2009-03-27d01t01.flac:afc3d77acd097946e3eafb9d09c2db0e
shoefly2009-03-27d01t02.flac:94513d41c50783cdc433204fc525d56c
shoefly2009-03-27d01t03.flac:f549528337f1616a2ccd20ff90d9c8ba
shoefly2009-03-27d01t04.flac:c08ba58a79cc6a8593ae9446af4d6868
shoefly2009-03-27d01t05.flac:7dd9d452108f7015514c1bdde98d9e60
shoefly2009-03-27d01t06.flac:296b49e75e8f8acfbefc519eeba6336f
shoefly2009-03-27d01t07.flac:c9d543eff2e551b02ed48a5725d413dd
shoefly2009-03-27d01t08.flac:51fbb7c865e684f9feb5198cae673a33
shoefly2009-03-27d01t09.flac:5c81f7acc1bd8c1df09f6eb28d2a36b2

shntool 

    length     expanded size    cdr  WAVE problems  fmt   ratio  filename
     2:33.22       27040988 B   ---   --   ---xx   flac  0.4560  shoefly2009-03-27d01t01.flac
     3:33.11       37599116 B   ---   --   ---xx   flac  0.4700  shoefly2009-03-27d01t02.flac
     3:34.55       37879004 B   ---   --   ---xx   flac  0.4653  shoefly2009-03-27d01t03.flac
     3:48.34       40299212 B   ---   --   ---xx   flac  0.4015  shoefly2009-03-27d01t04.flac
     2:58.72       31568588 B   ---   --   ---xx   flac  0.4496  shoefly2009-03-27d01t05.flac
     4:32.02       47985548 B   ---   --   ---xx   flac  0.3785  shoefly2009-03-27d01t06.flac
     4:04.64       43192172 B   ---   --   ---xx   flac  0.4524  shoefly2009-03-27d01t07.flac
     1:28.18       15565580 B   ---   --   ---xx   flac  0.4158  shoefly2009-03-27d01t08.flac
     4:06.44       43497932 B   ---   --   ---xx   flac  0.5378  shoefly2009-03-27d01t09.flac
    30:40.22      324628140 B                            0.4484  (9 files)







More information about the bittorrent mailing list