[bittorrent] Perpetual Groove - March 21, 2009 - The Note - West Chester, PA

Automated Mailer noreply-bt.e at etree.org
Wed Mar 25 20:42:36 MDT 2009


Band:           Perpetual Groove
Torrent Name:   Perpetual Groove - March 21, 2009 - The Note - West Chester, PA
Uploaded by:    cimburgia
DB Link:        
Details:        http://bt.etree.org/details.php?id=523678

Contact the seeder at http://db.etree.org/cimburgia

If the link to this show does not work, it was probably removed for
being non-trade-friendly.

Description / text file:
-------------------------
PERFORMANCE INFORMATION
Band: Perpetual Groove
Date: March 21, 2009
Venue: The Note
City, State: West Chester, PA
Taper: Chris Imburgia

SETLIST & TRACKING INFORMATION
Set One
01. Gorilla
02. Save 41
03. Crockett
04. AMF
05. Space P
06. Stealy

Set Two
07. Deception
08. Eminence Front
09. Screen
10. Starts
11. Teakwood
12. E: Walkin

RECORDING INFORMATION
Location: ROC by SBD
Microphone: Soundfield ST-350
Microphone Configuration: XY
Preamp: Soundfield ST-350 Controller Box
A/D Conversion and Recording Deck: Edirol R44 (Oade Concert Mod)
Recording Format: 4 Channel Wav File in B Format, 24 Bits @ 48 kHz Sample Rate

CONVERSION INFORMATION
Transfer: Edirol R44-> USB-> PC
Post-Production: 
[1] Polar Pattern, Width, and B Format to Stereo Decoding with Nuendo 3 using the Soundfield Surround Zone Plugin 
[2] Song Tracking with CD Wave
[3] Dither, Resample with Wavelab
[4] File Compression with FLAC Frontend (Level 6)
[5] FLAC File Tagging with Foobar 2000 Live Show Tagger Plugin
[6] Album Art tagging with Media Monkey
Final Microphone Configuration: [40% Cardioid]+[40% Hypercardioid]+[20% Blumlein] XY @ 90 Degrees
Final File Format: Stereo FLAC File, 24 Bits @ 48 kHz Sample Rate

FLAC FINGERPRINT INFORMATION
pgroove2009-03-21t01.flac:3ac4a2824e97b4c2a0d3b4314ff121e5
pgroove2009-03-21t02.flac:386db0308e601c53a26536aa59c04677
pgroove2009-03-21t03.flac:6b6e0b4b3dba937e0c8ce5bbde2acd8f
pgroove2009-03-21t04.flac:1f69507e1d4304a2f341703372418b2b
pgroove2009-03-21t05.flac:3cee6d31b3fef263f23c9ad52d506737
pgroove2009-03-21t06.flac:1c17ac3a1401e279cb3831d325ecfb22
pgroove2009-03-21t07.flac:9e227a1277435d1aff5e86ba609cae8b
pgroove2009-03-21t08.flac:0f82736cc541c41bcce75e3f720f8d46
pgroove2009-03-21t09.flac:ad1d9fd8a860293ec013303006879c39
pgroove2009-03-21t10.flac:428d95f1ea2c1c1c64c3bc165677b563
pgroove2009-03-21t11.flac:b7128545ce9f7865fdf11e684f3b1dfd
pgroove2009-03-21t12.flac:162d91693fb020fe8fc1fe756d257d3a

SECTOR BOUNDARY CONFIRMATION
  length     expanded size    cdr  WAVE problems  fmt   ratio  filename
    13:28.54      142658252 B   ---   --   ---xx   flac  0.4813  pgroove2009-03-21t01.flac
     9:18.72       98600588 B   ---   --   ---xx   flac  0.5369  pgroove2009-03-21t02.flac
     9:31.55      100853804 B   ---   --   ---xx   flac  0.5462  pgroove2009-03-21t03.flac
     9:28.71      100362236 B   ---   --   ---xx   flac  0.5549  pgroove2009-03-21t04.flac
     8:43.69       92419532 B   ---   --   ---xx   flac  0.5326  pgroove2009-03-21t05.flac
    16:58.39      179666972 B   ---   --   ---xx   flac  0.5229  pgroove2009-03-21t06.flac
    16:03.54      170000252 B   ---   --   ---xx   flac  0.5292  pgroove2009-03-21t07.flac
     5:54.42       62544428 B   ---   --   ---xx   flac  0.5208  pgroove2009-03-21t08.flac
    18:16.28      193400300 B   ---   --   ---xx   flac  0.5233  pgroove2009-03-21t09.flac
    10:59.40      116341724 B   ---   --   ---xx   flac  0.4992  pgroove2009-03-21t10.flac
    27:08.25      287238044 B   ---   --   ---xx   flac  0.5200  pgroove2009-03-21t11.flac
     9:33.21      101126636 B   ---   --   ---xx   flac  0.4945  pgroove2009-03-21t12.flac
   155:26.45     1645212768 B                            0.5208  (12 files)





More information about the bittorrent mailing list