[bittorrent] Jim Lauderdale The Ark Ann Arbor, Michigan 3/15/2009

Automated Mailer noreply-bt.e at etree.org
Wed Mar 25 13:05:34 MDT 2009


Band:           Other
Torrent Name:   Jim Lauderdale The Ark Ann Arbor, Michigan 3/15/2009
Uploaded by:    zmanatl
DB Link:        
Details:        http://bt.etree.org/details.php?id=523667

Contact the seeder at http://db.etree.org/zmanatl

If the link to this show does not work, it was probably removed for
being non-trade-friendly.

Description / text file:
-------------------------
Jim Lauderdale - Solo Acoustic
The Ark 
Ann Arbor, Michigan
3/15/2009

Source: Schoeps CCM4V'S(din)>Lunatec V2>Benchmark AD2K>
Sound Devices 722 (24/48)
Location: FOB/DFC/KFC/ZFC/AARP 3rd Row, 7' From Stage, 4' High
DSP: Sound Devices 722>Sound Forge 9.0>CD Wave>flac(16)
Recorded By: Z-Man
Seeded By: Z-Man
 
Disc I 1st Set

01 Introduction By Bill
02 Will Not Hide Away
03 The Humming Birds
04 Happy Birthday Noah
05 Whisper
06 In A Honky Tonk Mood
07 I'm Just Being Cautious
08 You Bring Joy To My Heart
09 Lost In The Lonesome Pines
10 Can We Find Forgiveness
11 I Met Jesus In A Bar
12 Banter on Bluegrass Record
13 Chances
14 Banter On Folk Festival MC
15 Not Thinking At All
16 Banter
17 I'm Almost Back
18 Banter
19 Lonesome Diesel On The Highway

Disc II 2nd Set

01 ?
02 Why Do I Love You
03 Divide And Conquer
04 Trash Can Tom Cat
05 Headed For The Hills
06 You Don't Seem To Miss Me
07 Planet Of Love
08 ?
09 Banter on Psychics
10 Always On The Outside Of Your Love
11 Calico 
12 Banter On Buddy Miller
13 Hole In My Head
14 King Of Broken Hearts
15 I'm Only Halfway Down
Encore:
16 Tuning/Banter
17 I Know Better Now
18 I Feel Like Singin' Today
19 Molly's Got A Chain
20 You Will Know When It Is Right
21 Don't Make Me Come Over There And Love You

Flac fingerprint 

jimlauderdale2009-03-15d01t01.flac:5b0a8f5ec4b2d4e4f8599602eca8c0d0
jimlauderdale2009-03-15d01t02.flac:4b4d1bed1c7a27ad95c496749663db6d
jimlauderdale2009-03-15d01t03.flac:e101ad447373c463b0fcbc275f2ce6f6
jimlauderdale2009-03-15d01t04.flac:a1efc144482319cc6c25e948e90a91d3
jimlauderdale2009-03-15d01t05.flac:92903c027ec2505c671daafeec2fc791
jimlauderdale2009-03-15d01t06.flac:5aa5f08f4ec7823034ef9d4c5f4e5dbd
jimlauderdale2009-03-15d01t07.flac:7f635b3b646b14efbbcc3f0492d53709
jimlauderdale2009-03-15d01t08.flac:c0dd84ad4882c2f286f2633be59030b0
jimlauderdale2009-03-15d01t09.flac:bb0c2d895ae291498fdbb7d801c61fea
jimlauderdale2009-03-15d01t10.flac:8d703c396be494f1abb47758d2d897a4
jimlauderdale2009-03-15d01t11.flac:74eebf5ffe8616fb76161aff202e533d
jimlauderdale2009-03-15d01t12.flac:f94fa97a71a4f5179ac2376c5b9c0ceb
jimlauderdale2009-03-15d01t13.flac:58a537522644c3c27d9d7a38138102da
jimlauderdale2009-03-15d01t14.flac:5570c5ea8b1184e53e2f875b1763b658
jimlauderdale2009-03-15d01t15.flac:78094e11f46271d4e49573ab4958a699
jimlauderdale2009-03-15d01t16.flac:55363a47cc780e66e59b34a357d3207a
jimlauderdale2009-03-15d01t17.flac:52b8794fe8452a809ce2a5858b110c85
jimlauderdale2009-03-15d01t18.flac:072b2301b02924a3d499c9117ce7ef53
jimlauderdale2009-03-15d01t19.flac:0a3e255853390c8f05c67de9fddeb368
jimlauderdale2009-03-15d02t01.flac:5d353b1c771770443d2d8f195b8211a1
jimlauderdale2009-03-15d02t02.flac:d3fbdb6829d475712d130c30372feb4a
jimlauderdale2009-03-15d02t03.flac:c8d1540cd020738bb6c9ae5db0a6ade3
jimlauderdale2009-03-15d02t04.flac:74872a3907a60a7c5d0703b1b6793d56
jimlauderdale2009-03-15d02t05.flac:3b18009932c08866d0b251d0c8b44ad8
jimlauderdale2009-03-15d02t06.flac:2ccbb60a99ac2547d9e98463b2bbac5f
jimlauderdale2009-03-15d02t07.flac:7450d6102fd8e9a5f7700fa2751bbc84
jimlauderdale2009-03-15d02t08.flac:e1e4b862fedb94133563a953715db33a
jimlauderdale2009-03-15d02t09.flac:d19992e6ba98cbd232c327a5d7e8ed4e
jimlauderdale2009-03-15d02t10.flac:0eede0034443b1818f72b0254e8d2829
jimlauderdale2009-03-15d02t11.flac:2d8cb8d9d189a7953ad4acb5d8abe51d
jimlauderdale2009-03-15d02t12.flac:b5c408642bef1b23768d23771c0a84de
jimlauderdale2009-03-15d02t13.flac:bafd78be254962003834e78aedeed8ad
jimlauderdale2009-03-15d02t14.flac:1f9e40646fd3ee1ddb3d2c500f331677
jimlauderdale2009-03-15d02t15.flac:9f716c52f9a58ac19a23074c08fd9441
jimlauderdale2009-03-15d02t16.flac:4f7dfb6660f573b8a05fc72d97285960
jimlauderdale2009-03-15d02t17.flac:d9f34c80fbfb89a7ccb9b9d0f1f99b00
jimlauderdale2009-03-15d02t18.flac:c400e03fdb1bd0819223a149888febe7
jimlauderdale2009-03-15d02t19.flac:8358bd0c18074bd806530cd1fd9e349d
jimlauderdale2009-03-15d02t20.flac:d10428d0d1ec370311e94483b1d9bfc6
jimlauderdale2009-03-15d02t21.flac:5523ab5b5350d5fb9241510c8fb5a2bc

shntool 

    length     expanded size    cdr  WAVE problems  fmt   ratio  filename
     0:37.08        6545660 B   ---   --   ---xx   flac  0.3848  jimlauderdale2009-03-15d01t01.flac
     3:00.56       31883756 B   ---   --   ---xx   flac  0.4611  jimlauderdale2009-03-15d01t02.flac
     2:35.01       27344396 B   ---   --   ---xx   flac  0.4279  jimlauderdale2009-03-15d01t03.flac
     0:58.70       10395884 B   ---   --   ---xx   flac  0.3299  jimlauderdale2009-03-15d01t04.flac
     3:26.48       36451340 B   ---   --   ---xx   flac  0.3431  jimlauderdale2009-03-15d01t05.flac
     2:31.00       26636444 B   ---   --   ---xx   flac  0.3888  jimlauderdale2009-03-15d01t06.flac
     3:20.38       35369420 B   ---   --   ---xx   flac  0.3829  jimlauderdale2009-03-15d01t07.flac
     2:42.19       28621532 B   ---   --   ---xx   flac  0.4445  jimlauderdale2009-03-15d01t08.flac
     5:03.25       53508044 B   ---   --   ---xx   flac  0.3278  jimlauderdale2009-03-15d01t09.flac
     3:55.43       41555180 B   ---   --   ---xx   flac  0.3745  jimlauderdale2009-03-15d01t10.flac
     3:48.68       40379180 B   ---   --   ---xx   flac  0.2971  jimlauderdale2009-03-15d01t11.flac
     2:49.14       29844572 B   ---   --   ---xx   flac  0.2388  jimlauderdale2009-03-15d01t12.flac
     2:38.20       27918284 B   ---   --   ---xx   flac  0.3865  jimlauderdale2009-03-15d01t13.flac
     2:58.47       31509788 B   ---   --   ---xx   flac  0.2573  jimlauderdale2009-03-15d01t14.flac
     2:10.67       23089628 B   ---   --   ---xx   flac  0.3962  jimlauderdale2009-03-15d01t15.flac
     2:14.48       23750540 B   ---   --   ---xx   flac  0.2798  jimlauderdale2009-03-15d01t16.flac
     3:27.30       36585404 B   ---   --   ---xx   flac  0.2845  jimlauderdale2009-03-15d01t17.flac
     2:29.49       26398892 B   ---   --   ---xx   flac  0.2810  jimlauderdale2009-03-15d01t18.flac
     3:10.53       33640700 B   ---   --   ---xx   flac  0.4031  jimlauderdale2009-03-15d01t19.flac
     2:34.31       27238556 B   ---   --   ---xx   flac  0.4229  jimlauderdale2009-03-15d02t01.flac
     3:58.66       42138476 B   ---   --   ---xx   flac  0.3622  jimlauderdale2009-03-15d02t02.flac
     3:29.56       36999356 B   ---   --   ---xx   flac  0.3772  jimlauderdale2009-03-15d02t03.flac
     5:01.68       53256380 B   ---   --   ---xx   flac  0.3110  jimlauderdale2009-03-15d02t04.flac
     5:18.29       56163452 B   ---   --   ---xx   flac  0.3337  jimlauderdale2009-03-15d02t05.flac
     4:36.15       48721724 B   ---   --   ---xx   flac  0.3121  jimlauderdale2009-03-15d02t06.flac
     3:40.22       38859788 B   ---   --   ---xx   flac  0.3151  jimlauderdale2009-03-15d02t07.flac
     2:52.17       30380828 B   ---   --   ---xx   flac  0.3319  jimlauderdale2009-03-15d02t08.flac
     2:52.03       30347900 B   ---   --   ---xx   flac  0.2360  jimlauderdale2009-03-15d02t09.flac
     4:18.23       45565340 B   ---   --   ---xx   flac  0.3589  jimlauderdale2009-03-15d02t10.flac
     3:17.01       34753196 B   ---   --   ---xx   flac  0.3487  jimlauderdale2009-03-15d02t11.flac
     1:52.53       19881500 B   ---   --   ---xx   flac  0.2427  jimlauderdale2009-03-15d02t12.flac
     3:57.43       41907980 B   ---   --   ---xx   flac  0.3554  jimlauderdale2009-03-15d02t13.flac
     2:59.24       31632092 B   ---   --   ---xx   flac  0.3320  jimlauderdale2009-03-15d02t14.flac
     3:03.39       32372972 B   ---   --   ---xx   flac  0.4339  jimlauderdale2009-03-15d02t15.flac
     1:40.68       17799980 B   ---   --   ---xx   flac  0.2709  jimlauderdale2009-03-15d02t16.flac
     4:38.21       49088636 B   ---   --   ---xx   flac  0.2759  jimlauderdale2009-03-15d02t17.flac
     2:31.38       26725820 B   ---   --   ---xx   flac  0.3696  jimlauderdale2009-03-15d02t18.flac
     4:03.34       42945212 B   ---   --   ---xx   flac  0.3288  jimlauderdale2009-03-15d02t19.flac
     4:08.69       43909532 B   ---   --   ---xx   flac  0.2796  jimlauderdale2009-03-15d02t20.flac
     2:56.72       31215788 B   ---   --   ---xx   flac  0.3900  jimlauderdale2009-03-15d02t21.flac
   127:51.71     1353333152 B                            0.3400  (40 files)






More information about the bittorrent mailing list