[bittorrent] Lost Voices Benefit The Ark Ann Arbor, Michigan 3/23/2009

Automated Mailer noreply-bt.e at etree.org
Tue Mar 24 09:30:42 MDT 2009


Band:           Other
Torrent Name:   Lost Voices Benefit The Ark Ann Arbor, Michigan 3/23/2009
Uploaded by:    zmanatl
DB Link:        
Details:        http://bt.etree.org/details.php?id=523649

Contact the seeder at http://db.etree.org/zmanatl

If the link to this show does not work, it was probably removed for
being non-trade-friendly.

Description / text file:
-------------------------
Lost Voices
The Ark
Ann Arbor, Michigan
3/23/2009

Source: Schoeps CCM4V'S(din)>Lunatec V2>Benchmark AD2K>
Sound Devices 722 (24/48)
Location: FOB/DFRC/KFC/ZFC/AARP 3rd Row, 7' From Stage, 4 1/2' High 
DSP: Sound Devices 722>Sound Forge 9.0>CD Wave>flac(16)
Recorded By: Z-Man
Seeded By: Z-Man
 
Disc I 

01 Video
02 *We Are Only Passing Through
03 *Mike Ball Banter About Lost Voices
04 #And I Can't Help But Wonder Where I'm Bound
05 @Kitty Donahoe Banter
06 @I'm Moving On
07 *Mike Ball Banter
08 *In And Out Of Locked Doors
09 $Robert Jones Banter
10 $Death Letter Blues
11 $Death Letter Blues (Hip Hop Version)
12 %Josh White Jr. Banter
13 %Dark World
14 ^Peter "MAd Cat" Ruth Banter
15 ^Never Let The Devil Have His Way
16 #Matt Witroba Banter
17 #Inviting Diane

Disc II

01 @Kitty Donahoe Banter
02 @I Asked God For A Flower
03 $Robert Jones Banter
04 $The Darkness Of Blackness
05 %Josh White Jr. Banter
06 %Beneath My Cries
07 ^Nobody Knows You When You're Down And Out
08 #Matt Witroba Banter On Mad Cat's 60th Birthday Next Week 
09 #?
10 @Kitty Donahoe Banter
11 @Love Is Not Hard To Find
12 $The Lord Will Deliver Me From The Flood
13 %Josh White Banter
14 %Prevent These Things
15 *Mike Ball Banter
16 *How Many
Encore:
17 Thanks
18 I'm Gonna Let It Shine

Lost Voices:

* Mike Ball
# Matt Witroba
@ Kitty Donahoe
$ Robert Jones
% Josh White Jr.
^ Peter "Mad Cat" Ruth

Flac fingerprint 

lostvoices2009-03-23d01t01.flac:a2f575201eab6507b850c211e77bc56a
lostvoices2009-03-23d01t02.flac:9ab39087e8b9fff35875e74ca02883b7
lostvoices2009-03-23d01t03.flac:36923deca46d83d11924be4c744056e4
lostvoices2009-03-23d01t04.flac:b10727440244134092b8a89c738fdc40
lostvoices2009-03-23d01t05.flac:bef9530bbb8b2dc65684ee77d7d98871
lostvoices2009-03-23d01t06.flac:f0c9b452830887931ad82706de07814f
lostvoices2009-03-23d01t07.flac:cf20ac46d463e06ea2cacbbaad19aea6
lostvoices2009-03-23d01t08.flac:6e6453456710ed3804f27edcbefe958b
lostvoices2009-03-23d01t09.flac:fa6663c8beec9c025363bf786304f041
lostvoices2009-03-23d01t10.flac:21bb37d680533c876487150bb53aa730
lostvoices2009-03-23d01t11.flac:beb3b8dd25c08b815267d28dbc6c409b
lostvoices2009-03-23d01t12.flac:f54e3b95e0f6a36d0f6d27eba759ba6b
lostvoices2009-03-23d01t13.flac:d4bdcf934e81640da186101e87fae18e
lostvoices2009-03-23d01t14.flac:98e72ca01a2075fce892ca96b2a41268
lostvoices2009-03-23d01t15.flac:ea272e3071a0a579e5bc788d37667f93
lostvoices2009-03-23d01t16.flac:bcc9f5925de9be16435bc2a359f8a449
lostvoices2009-03-23d01t17.flac:a5265a016a5cf63d22f2df8fd5eb654f
lostvoices2009-03-23d02t01.flac:7bbf4ad96d9b9c0e8bb61d3383b1438c
lostvoices2009-03-23d02t02.flac:0cb3fab307661c247708a63c24e99684
lostvoices2009-03-23d02t03.flac:d0611231aabcca99ed3ad056a18545fb
lostvoices2009-03-23d02t04.flac:4b605e8588f26c299d2e2f396c194e79
lostvoices2009-03-23d02t05.flac:7cb47a0eabb3d3804640eb47ff799e64
lostvoices2009-03-23d02t06.flac:3624db8bb6e488962b08e81373e45cd2
lostvoices2009-03-23d02t07.flac:e5ca8696c47f849ce20e445f1b348671
lostvoices2009-03-23d02t08.flac:c1f1e9166db0f32f6926bf5fb8d81a24
lostvoices2009-03-23d02t09.flac:a3a34fb10e9aa0072d48e4c47eeca572
lostvoices2009-03-23d02t10.flac:d10307167aa0de15cd2c472363f041de
lostvoices2009-03-23d02t11.flac:19417af8c4775aaed3a1bcb60c3b65b8
lostvoices2009-03-23d02t12.flac:7272e488b6c31a507fbaf97f2b77ee36
lostvoices2009-03-23d02t13.flac:22de5e29aff83d3a987905913eb8e95e
lostvoices2009-03-23d02t14.flac:8bee7549b5656c4741e159341257ca2d
lostvoices2009-03-23d02t15.flac:fc6a7182324906586c11392a6dff2291
lostvoices2009-03-23d02t16.flac:f4358e21d4ba47fc7413247e47dda802
lostvoices2009-03-23d02t17.flac:f1f7878abed9214492ba6a0ad755decd
lostvoices2009-03-23d02t18.flac:3aad26679ef15632ea7499ef5ac6500f

shntool 

    length     expanded size    cdr  WAVE problems  fmt   ratio  filename
     2:00.66       21323276 B   ---   --   ---xx   flac  0.3408  lostvoices2009-03-23d01t01.flac
     4:12.65       44605724 B   ---   --   ---xx   flac  0.3953  lostvoices2009-03-23d01t02.flac
     1:28.72       15692588 B   ---   --   ---xx   flac  0.3504  lostvoices2009-03-23d01t03.flac
     5:25.10       57353564 B   ---   --   ---xx   flac  0.4198  lostvoices2009-03-23d01t04.flac
     1:33.67       16562828 B   ---   --   ---xx   flac  0.3347  lostvoices2009-03-23d01t05.flac
     2:25.26       25639196 B   ---   --   ---xx   flac  0.3826  lostvoices2009-03-23d01t06.flac
     1:53.06       19947356 B   ---   --   ---xx   flac  0.3576  lostvoices2009-03-23d01t07.flac
     5:55.04       62631452 B   ---   --   ---xx   flac  0.5086  lostvoices2009-03-23d01t08.flac
     1:23.18       14683580 B   ---   --   ---xx   flac  0.3270  lostvoices2009-03-23d01t09.flac
     4:00.74       42510092 B   ---   --   ---xx   flac  0.5487  lostvoices2009-03-23d01t10.flac
     1:04.38       11379020 B   ---   --   ---xx   flac  0.5096  lostvoices2009-03-23d01t11.flac
     2:43.59       28892012 B   ---   --   ---xx   flac  0.3252  lostvoices2009-03-23d01t12.flac
     3:36.44       38205932 B   ---   --   ---xx   flac  0.4534  lostvoices2009-03-23d01t13.flac
     0:54.53        9650300 B   ---   --   ---xx   flac  0.3188  lostvoices2009-03-23d01t14.flac
     2:54.42       30792428 B   ---   --   ---xx   flac  0.4464  lostvoices2009-03-23d01t15.flac
     2:21.09       24893612 B   ---   --   ---xx   flac  0.3640  lostvoices2009-03-23d01t16.flac
     3:51.70       40913084 B   ---   --   ---xx   flac  0.3361  lostvoices2009-03-23d01t17.flac
     2:24.72       25570988 B   ---   --   ---xx   flac  0.3264  lostvoices2009-03-23d02t01.flac
     2:47.65       29611724 B   ---   --   ---xx   flac  0.3567  lostvoices2009-03-23d02t02.flac
     1:57.49       20754092 B   ---   --   ---xx   flac  0.3015  lostvoices2009-03-23d02t03.flac
     5:17.20       55965884 B   ---   --   ---xx   flac  0.3887  lostvoices2009-03-23d02t04.flac
     1:03.40       11207324 B   ---   --   ---xx   flac  0.3066  lostvoices2009-03-23d02t05.flac
     4:21.47       46150988 B   ---   --   ---xx   flac  0.3773  lostvoices2009-03-23d02t06.flac
     2:48.18       29677580 B   ---   --   ---xx   flac  0.4331  lostvoices2009-03-23d02t07.flac
     2:06.49       22341692 B   ---   --   ---xx   flac  0.3654  lostvoices2009-03-23d02t08.flac
     5:01.18       53138780 B   ---   --   ---xx   flac  0.4229  lostvoices2009-03-23d02t09.flac
     1:23.08       14660060 B   ---   --   ---xx   flac  0.3214  lostvoices2009-03-23d02t10.flac
     3:35.66       38081276 B   ---   --   ---xx   flac  0.5305  lostvoices2009-03-23d02t11.flac
     5:00.44       53023532 B   ---   --   ---xx   flac  0.4772  lostvoices2009-03-23d02t12.flac
     1:17.34       13662812 B   ---   --   ---xx   flac  0.3168  lostvoices2009-03-23d02t13.flac
     4:06.29       43462652 B   ---   --   ---xx   flac  0.4728  lostvoices2009-03-23d02t14.flac
     1:21.08       14307260 B   ---   --   ---xx   flac  0.3302  lostvoices2009-03-23d02t15.flac
     4:16.55       45287804 B   ---   --   ---xx   flac  0.4421  lostvoices2009-03-23d02t16.flac
     2:19.46       24627836 B   ---   --   ---xx   flac  0.4077  lostvoices2009-03-23d02t17.flac
     6:04.23       64263740 B   ---   --   ---xx   flac  0.4959  lostvoices2009-03-23d02t18.flac
   105:00.64     1111472068 B                            0.4158  (35 files)







More information about the bittorrent mailing list