[bittorrent] {DttC093} 1989-10-08, 10-09, 10-19: Hampton and Philadelphia [SHNIDs 81532, 80840, and 83305]

Automated Mailer noreply-bt.e at etree.org
Sat Mar 21 11:08:36 MDT 2009


Band:           Grateful Dead
Torrent Name:   {DttC093} 1989-10-08, 10-09, 10-19: Hampton and Philadelphia [SHNIDs 81532, 80840, and 83305]
Uploaded by:    SteveSw
DB Link:        
Details:        http://bt.etree.org/details.php?id=523579

Contact the seeder at http://db.etree.org/SteveSw

If the link to this show does not work, it was probably removed for
being non-trade-friendly.

Description / text file:
-------------------------
Grateful Dead - October 8, 1989
Hampton Coliseum - Hampton, VA

Recording Info:
SBD -> Cassette Master (TDK MA-XG90)

Transfer Info:
Cassette Master (Tascam 122mkII) -> Apogee MiniMe (24bit/48k) ->
Samplitude Professional v8.01 -> FLAC/16
(3 Discs Audio / 2 Discs FLAC)

All Transfers and Mastering By Charlie Miller
charliemiller87 at earthlink.net
December 16, 2006

Patch Info:
(FOB) Schoeps CMC3/MK4 -> Dat -> CD supplies:
Space (1:18 - 1:53)

Notes:
-- 2nd Set is seamless
-- Thanks to Paul Scotton and Joani Walker for the tapes

Set 1:
d1t01 - Tuning
d1t02 -	Foolish Heart ->
d1t03 - Walkin' Blues
d1t04 - Candyman
d1t05 - Me And My Uncle ->
d1t06 - Big River
d1t07 - Stagger Lee
d1t08 - Queen Jane Approximately
d1t09 - Bird Song ->
d1t10 - The Promised Land

Set 2:
d2t01 - Tuning
d2t02 - Help On The Way ->
d2t03 - Slipknot! ->
d2t04 - Franklin's Tower
d2t05 - Victim Or The Crime ->
d2t06 - Eyes Of The World ->
d2t07 - Drums ->
d3t01 - Space ->
d3t02 - I Need A Miracle ->
d3t03 - The Wheel ->
d3t04 - Gimme Some Lovin' ->
d3t05 - Morning Dew

Encore:
d3t06 -	And We Bid You Good Night

    length     expanded size    cdr  WAVE problems  fmt   ratio  filename
     2:37.44       27798332 B   ---   --   ---xx   flac  0.5186  gd89-10-08d1t01.flac
     7:30.63       79528220 B   ---   --   ---xx   flac  0.6242  gd89-10-08d1t02.flac
     9:07.70       96655484 B   ---   --   ---xx   flac  0.5634  gd89-10-08d1t03.flac
     8:04.15       85412924 B   ---   --   ---xx   flac  0.5791  gd89-10-08d1t04.flac
     3:10.47       33626588 B   ---   --   ---xx   flac  0.6275  gd89-10-08d1t05.flac
     7:27.64       79001372 B   ---   --   ---xx   flac  0.6149  gd89-10-08d1t06.flac
     6:01.03       63687500 B   ---   --   ---xx   flac  0.6210  gd89-10-08d1t07.flac
     7:41.58       81456860 B   ---   --   ---xx   flac  0.5815  gd89-10-08d1t08.flac
    13:30.47      142994588 B   ---   --   ---xx   flac  0.6043  gd89-10-08d1t09.flac
     4:49.39       51071372 B   ---   --   ---xx   flac  0.6248  gd89-10-08d1t10.flac
     1:22.06       14478956 B   ---   --   ---xx   flac  0.4998  gd89-10-08d2t01.flac
     4:11.30       44347004 B   ---   --   ---xx   flac  0.6248  gd89-10-08d2t02.flac
     4:56.17       52254428 B   ---   --   ---xx   flac  0.6101  gd89-10-08d2t03.flac
     8:51.62       93814268 B   ---   --   ---xx   flac  0.6172  gd89-10-08d2t04.flac
     8:13.68       87125180 B   ---   --   ---xx   flac  0.6051  gd89-10-08d2t05.flac
     9:27.63      100167020 B   ---   --   ---xx   flac  0.5944  gd89-10-08d2t06.flac
     9:11.44       97299932 B   ---   --   ---xx   flac  0.5038  gd89-10-08d2t07.flac
    10:23.25      109956044 B   ---   --   ---xx   flac  0.4900  gd89-10-08d3t01.flac
     4:07.70       43735484 B   ---   --   ---xx   flac  0.5972  gd89-10-08d3t02.flac
     4:15.07       44998508 B   ---   --   ---xx   flac  0.5950  gd89-10-08d3t03.flac
     4:34.04       48343052 B   ---   --   ---xx   flac  0.6079  gd89-10-08d3t04.flac
    12:22.45      130994684 B   ---   --   ---xx   flac  0.5391  gd89-10-08d3t05.flac
     3:25.34       36242012 B   ---   --   ---xx   flac  0.5495  gd89-10-08d3t06.flac
   155:25.25     1644989812 B                            0.5809  (23 files)

==========

Grateful Dead - October 9, 1989
Hampton Coliseum - Hampton, VA
**Formerly The Warlocks**

Recording Info:
SBD -> Dat (48k)

Transfer Info:
Dat (Sony R500) -> SEK'D Prodif Plus -> Samplitude Professional v8.01 -> FLAC
(3 Discs Audio / 2 Discs FLAC)

All Transfers and Mastering By Charlie Miller
charliemiller87 at earthlink.net
August 26, 2006

Patch Info:
The following songs were patched from Cassette Master SBD
Little Red Rooster, Ramble On Rose, Jack-A-Roe through Row Jimmy

Notes:
-- This has an upgraded patch source
-- Discs 2 and 3 can be re-joined seamlessly
-- Feel Like A Stranger appears on Without A Net

Set 1:
d1t01 - Tuning
d1t02 - Feel Like A Stranger
d1t03 - Built To Last
d1t04 - Little Red Rooster
d1t05 - Ramble On Rose
d1t06 - We Can Run
d1t07 - Jack-A-Roe
d1t08 - Stuck Inside Of Mobile With The Memphis Blues Again
d1t09 - Row Jimmy
d1t10 - The Music Never Stopped

Set 2:
d2t01 - Tuning
d2t02 - Playing In The Band ->
d2t03 - Uncle John's Band ->
d2t04 - Playing In The Band Reprise ->
d2t05 - Dark Star ->
d2t06 - Drums ->
d3t01 - Space ->
d3t02 - Death Don't Have No Mercy ->
d3t03 - Dear Mr. Fantasy ->
d3t04 - Hey Jude ->
d3t05 - Throwing Stones ->
d3t06 - Good Lovin'

Encore:
d3t07 - Crowd/Tuning
d3t08 - Attics Of My Life

    length     expanded size    cdr  WAVE problems  fmt   ratio  filename
     2:00.26       21229196 B   ---   --   ---xx   flac  0.4231  gd89-10-09d1t01.flac
     7:52.15       83296124 B   ---   --   ---xx   flac  0.5802  gd89-10-09d1t02.flac
     5:21.10       56647964 B   ---   --   ---xx   flac  0.5734  gd89-10-09d1t03.flac
     9:21.26       99021596 B   ---   --   ---xx   flac  0.5622  gd89-10-09d1t04.flac
     7:59.56       84627356 B   ---   --   ---xx   flac  0.5477  gd89-10-09d1t05.flac
     6:41.52       70858748 B   ---   --   ---xx   flac  0.5640  gd89-10-09d1t06.flac
     4:34.21       48383036 B   ---   --   ---xx   flac  0.6010  gd89-10-09d1t07.flac
    11:13.34      118797212 B   ---   --   ---xx   flac  0.5601  gd89-10-09d1t08.flac
    11:00.50      116541644 B   ---   --   ---xx   flac  0.5550  gd89-10-09d1t09.flac
     8:12.45       86894684 B   ---   --   ---xx   flac  0.5899  gd89-10-09d1t10.flac
     4:04.73       43213340 B   ---   --   ---xx   flac  0.3695  gd89-10-09d2t01.flac
    10:42.31      113321756 B   ---   --   ---xx   flac  0.5432  gd89-10-09d2t02.flac
    12:05.40      127984124 B   ---   --   ---xx   flac  0.5379  gd89-10-09d2t03.flac
     2:20.61       24839516 B   ---   --   ---xx   flac  0.5220  gd89-10-09d2t04.flac
    19:22.67      205134428 B   ---   --   ---xx   flac  0.5065  gd89-10-09d2t05.flac
     9:11.04       97205852 B   ---   --   ---xx   flac  0.4169  gd89-10-09d2t06.flac
     7:41.06       81334556 B   ---   --   ---xx   flac  0.4788  gd89-10-09d3t01.flac
     8:34.64       90820172 B   ---   --   ---xx   flac  0.5448  gd89-10-09d3t02.flac
     4:37.26       48923996 B   ---   --   ---xx   flac  0.5667  gd89-10-09d3t03.flac
     3:47.66       40198076 B   ---   --   ---xx   flac  0.5563  gd89-10-09d3t04.flac
    10:19.07      109208108 B   ---   --   ---xx   flac  0.5289  gd89-10-09d3t05.flac
     6:52.71       72843836 B   ---   --   ---xx   flac  0.5300  gd89-10-09d3t06.flac
     2:28.25       26166044 B   ---   --   ---xx   flac  0.4398  gd89-10-09d3t07.flac
     5:31.73       58560140 B   ---   --   ---xx   flac  0.4897  gd89-10-09d3t08.flac
   181:58.49     1926051504 B                            0.5307  (24 files)

==========

Grateful Dead - October 19, 1989
The Spectrum - Philadelphia, PA

Recording Info:
SBD -> Cassette Master (TDK MA-XG90)

Transfer Info:
Cassette Master (Tascam 122mkII) -> Apogee MiniMe (24bit/48k) ->
Samplitude Professional v8.01 -> FLAC/16
(3 Discs Audio / 2 Discs FLAC)

All Transfers and Mastering By Charlie Miller
charliemiller87 at earthlink.net
January 29, 2007

Patch Info:
(2) Nakamichi 300/CP4 + (2) Nakamichi 100/CP1 -> Cassette Master -> CD
Drums (5:01 - 5:06)

Notes:
-- Set 2 is seamless
-- Thanks to Paul Scotton and Joani Walker for the tapes
-- Patch source recorded By Steve Cherson

Set 1:
d1t01 - Tuning
d1t02 - Hell In A Bucket
d1t03 - West L.A. Fadeaway
d1t04 - Victim Or The Crime
d1t05 - Built To Last
d1t06 - Blow Away
d1t07 - When I Paint My Masterpiece
d1t08 - Cumberland Blues
d1t09 - Cassidy ->
d1t10 - Don't Ease Me In

Set 2:
d2t01 - Tuning
d2t02 - Help On The Way ->
d2t03 - Slipknot! ->
d2t04 - Franklin's Tower
d2t05 - Estimated Prophet ->
d2t06 - Eyes Of The World ->
d2t07 - Drums ->
d3t01 - Space ->
d3t02 - The Wheel ->
d3t03 - Dear Mr. Fantasy ->
d3t04 - Hey Jude ->
d3t05 - Death Don't Have No Mercy ->
d3t06 - Turn On Your Lovelight

Encore:
d3t07 - Crowd/Tuning
d3t08 - It's All Over Now, Baby Blue

    length     expanded size    cdr  WAVE problems  fmt   ratio  filename
     0:58.69       10393532 B   ---   --   ---xx   flac  0.3344  gd89-10-19d1t01.flac
     7:11.17       76068428 B   ---   --   ---xx   flac  0.5906  gd89-10-19d1t02.flac
     9:36.49      101721692 B   ---   --   ---xx   flac  0.5807  gd89-10-19d1t03.flac
    11:37.72      123120188 B   ---   --   ---xx   flac  0.5663  gd89-10-19d1t04.flac
     7:19.43       77540780 B   ---   --   ---xx   flac  0.5706  gd89-10-19d1t05.flac
     5:55.16       62659676 B   ---   --   ---xx   flac  0.6208  gd89-10-19d1t06.flac
     5:49.09       61584812 B   ---   --   ---xx   flac  0.5965  gd89-10-19d1t07.flac
     6:22.15       67420124 B   ---   --   ---xx   flac  0.6101  gd89-10-19d1t08.flac
     6:29.09       68640812 B   ---   --   ---xx   flac  0.6121  gd89-10-19d1t09.flac
     3:24.22       36037388 B   ---   --   ---xx   flac  0.6417  gd89-10-19d1t10.flac
     0:37.27        6590348 B   ---   --   ---xx   flac  0.5101  gd89-10-19d2t01.flac
     4:11.45       44382284 B   ---   --   ---xx   flac  0.6093  gd89-10-19d2t02.flac
     5:20.20       56495084 B   ---   --   ---xx   flac  0.6044  gd89-10-19d2t03.flac
     8:59.19       95124332 B   ---   --   ---xx   flac  0.6300  gd89-10-19d2t04.flac
    12:24.09      131262812 B   ---   --   ---xx   flac  0.6040  gd89-10-19d2t05.flac
     9:50.49      104191292 B   ---   --   ---xx   flac  0.6077  gd89-10-19d2t06.flac
    12:03.40      127631324 B   ---   --   ---xx   flac  0.5427  gd89-10-19d2t07.flac
     8:53.10       94044764 B   ---   --   ---xx   flac  0.5195  gd89-10-19d3t01.flac
     4:54.35       51943964 B   ---   --   ---xx   flac  0.5932  gd89-10-19d3t02.flac
     7:27.37       78937868 B   ---   --   ---xx   flac  0.6130  gd89-10-19d3t03.flac
     2:16.03       23997500 B   ---   --   ---xx   flac  0.6164  gd89-10-19d3t04.flac
     5:27.73       57854540 B   ---   --   ---xx   flac  0.6058  gd89-10-19d3t05.flac
     5:29.46       58143836 B   ---   --   ---xx   flac  0.6106  gd89-10-19d3t06.flac
     0:45.16        7975676 B   ---   --   ---xx   flac  0.4807  gd89-10-19d3t07.flac
     7:22.17       78008828 B   ---   --   ---xx   flac  0.5890  gd89-10-19d3t08.flac
   160:47.17     1701771884 B                            0.5893  (25 files)




More information about the bittorrent mailing list