[bittorrent] jg1992-05-01.jgb.neumann54.97710.flac16 **Only Source In Database**

Automated Mailer noreply-bt.e at etree.org
Fri Mar 20 20:47:47 MDT 2009


Band:           Garcia
Torrent Name:   jg1992-05-01.jgb.neumann54.97710.flac16 **Only Source In Database**
Uploaded by:    ebelgee
DB Link:        http://db.etree.org/shninfo_detail.php?shnid=97710
Details:        http://bt.etree.org/details.php?id=523570

Contact the seeder at http://db.etree.org/ebelgee

If the link to this show does not work, it was probably removed for
being non-trade-friendly.

Description / text file:
-------------------------
Jerry Garcia Band
Warfield Theater,
San Francisco, Ca.
05-01-92

Source:   FOB - Neumann KM 54->DAT->CDR->WAV->FLAC

Taper:    Chuck and Janet Vasseur  (assumed, but not confirmed) 

Transfer: Dat Clone->Panasonic SV3700-> Marantz CDR 615-> CDR Ripped with EAC (No Errors)
 Tracks Named -> Flaced with Traders Little Helper and Tagged with Foobar 2000.
 DAT->CDR 1999, CDR->Flac on 03-02-09 Transfers by Pete Ebel



Set 1: 
01. How Sweet It Is!
02. Stop that Train
03. Get Out Of My Life Woman
04. Run for the Roses
05. Forever Young
06. My Sisters and Brothers
07. Deal 

Set 2:
01. Shining Star
02. Money Honey
03. Breadbox
04. Mississippi Moon
05. The Maker
06. Wonderful World *
07. Midnight Moonlight



Comments:  
*First Time Played
*First Couple of Notes of Shining Star are missing

Nice Recording...enjoy


shntool 3.0.4
Copyright (C) 2000-2007 Jason Jordan <shnutils at freeshell.org>

   length     expanded size    cdr  WAVE problems  fmt   ratio  filename
   10:00.60      105981164 B   ---   --   ---xx   flac  0.5036  jgb1992-05-01d1t01.flac
    9:49.73      104071340 B   ---   --   ---xx   flac  0.5343  jgb1992-05-01d1t02.flac
    8:39.48       91664540 B   ---   --   ---xx   flac  0.5602  jgb1992-05-01d1t03.flac
    5:52.10       62116364 B   ---   --   ---xx   flac  0.5633  jgb1992-05-01d1t04.flac
    9:28.48      100308140 B   ---   --   ---xx   flac  0.5174  jgb1992-05-01d1t05.flac
    5:00.47       53030588 B   ---   --   ---xx   flac  0.5481  jgb1992-05-01d1t06.flac
    9:59.18      105705980 B   ---   --   ---xx   flac  0.5747  jgb1992-05-01d1t07.flac
   15:08.55      160300604 B   ---   --   ---xx   flac  0.5047  jgb1992-05-01d2t01.flac
    7:26.06       78688556 B   ---   --   ---xx   flac  0.5403  jgb1992-05-01d2t02.flac
    8:17.34       87750812 B   ---   --   ---xx   flac  0.5672  jgb1992-05-01d2t03.flac
    8:48.61       93282716 B   ---   --   ---xx   flac  0.4971  jgb1992-05-01d2t04.flac
    8:29.48       89900540 B   ---   --   ---xx   flac  0.5066  jgb1992-05-01d2t05.flac
   11:32.29      122137052 B   ---   --   ---xx   flac  0.4337  jgb1992-05-01d2t06.flac
    6:14.09       65994812 B   ---   --   ---xx   flac  0.5785  jgb1992-05-01d2t07.flac
  124:48.21     1320933208 B                            0.5249  (14 files)





More information about the bittorrent mailing list