[bittorrent] jg1992-08-02.GEMS.FOB.BrenneckeYoung.98016.flac16

Automated Mailer noreply-bt.e at etree.org
Fri Mar 20 19:21:33 MDT 2009


Band:           Garcia
Torrent Name:   jg1992-08-02.GEMS.FOB.BrenneckeYoung.98016.flac16
Uploaded by:    bluedakota
DB Link:        http://db.etree.org/shn/98016
Details:        http://bt.etree.org/details.php?id=523566

Contact the seeder at http://db.etree.org/bluedakota

If the link to this show does not work, it was probably removed for
being non-trade-friendly.

Description / text file:
-------------------------
Jerry Garcia Band
August 2, 1992
Devore Field (Southwestern College)
Chula Vista, CA


http://db.etree.org/shn/98016

FOB Digital Audience Recording
The James Young & Clay Brennecke FOB Vault Collection
claybrennecke at gmail.com

Lineage: DAT Clone of DAT Master

Recording Equipment: Sennheiser MD 421 > Panasonic sv255  

Recording Location: FOB 

Recorded by Unknown

Transfer: 16 bit – 48kHz DAT Clone > TASCAM DA-20 (SPDIF out) -> 
LynxTWO-B Audio Reference Interface (SPDIF in) -> 
Wavelab 6.0 by Todd Evans (todd at bluedakota.com) February 22, 2009 

Editing and Mastering: Jamie Waddell (shnflac at gmail.com) on the GEMS Edit Station. 
Weiss Saracon for 16 BIT – 44.1kHz SRC and POWR-3 Dither 
Encoding by Dazed64. Tracked in CDwave, FLAC’d Flac Frontend level 8
Tag & Rename for FLAC Meta-Tagging.

Art: Gyro

A **GEMS** Production  www.shnflac.net 


Set 1
d1t01 | How Sweet It Is To Be Loved By You 
d1t02 | Crowd
d1t03 | Stop That Train  
d1t04 | He Ain't Give You None 
d1t05 | C'est La Vie (You Never Can Tell) 
d1t06 | Crowd
d1t07 | Lay Down Sally 
d1t08 | Crowd
d1t09 | My Sisters And Brothers 
d1t10 | Deal 


Set 2
d2t01 | Shining Star
d2t02 | Crowd  
d2t03 | Waiting For A Miracle  
d2t04 | Crowd
d2t05 | Think  
d2t06 | The Maker  
d2t07 | Gomorrah  
d2t08 | Ain't No Bread In The Breadbox  
d2t09 | Crowd
d2t10 | That Lucky Old Sun  
d2t11 | Midnight Moonlight  



The James Young & Clay Brennecke FOB Vault - a GEMS Production
May 2008 ... we are in progress with The James Young and Clay Brennecke FOB Vault Transfer Project. We have all the Master DATs and are hard at work transferring, editing and soon to be releasing the shows Clay & James recorded from 1991 through 1994.  James and Clay began recording with B&K 4011 microphones and a Sony Pro DAT in the Spring of 1991. Summer 1991 mainly saw recordings from the Front Row Dead Center of the Official Taper Section (OTS). June 28, 1991 was their first FOB Recording. And starting with Fall 1991, all of their recordings were All FOB All The Time!  Early they recorded with the B&K 4011 Cardiod Mics in the ORTF pattern into a Modified Sony Pro DAT Deck. In 1993, James traded in the B&K's for the AMS ST-250 Soundfield Mic and recorded in the Blumlein pattern into the modified Sony Pro DAT Deck. We are starting at the beginning and working our way to the end of this vault. Spring 1991 through 1994. We have added artwork for CD's and included an m3u playl
 ist for import into your choice of PC/MAC media player ... and if your player supports FLAC, all you have to do is place the folder where you plan to store the files and import the playlist - tracks, tagged and with art are ready for you. We hope you enjoy their body of recording work. ------- Todd & Jamie - Project GEMS. 

If you have questions or comments, Clay would love to hear from you - claybrennecke at gmail.com - and of course Jamie (**__**) and I (bluedakota) welcome any input you may have - shnflac at gmail.com  -  todd at bluedakota.com

A **GEMS** Production  www.shnflac.net 


shntool 3.0.4
Copyright (C) 2000-2007 Jason Jordan <shnutils at freeshell.org>

    length     expanded size    cdr  WAVE problems  fmt   ratio  filename
     6:34.62       69647468 B   ---   --   ---xx   flac  0.5291  JGB1992-08-02 Chula Vista CA FOB DAUD GEMS.(01).flac
     1:34.21       16631036 B   ---   --   ---xx   flac  0.3912  JGB1992-08-02 Chula Vista CA FOB DAUD GEMS.(02).flac
     7:30.28       79445900 B   ---   --   ---xx   flac  0.5210  JGB1992-08-02 Chula Vista CA FOB DAUD GEMS.(03).flac
     9:22.08       99155660 B   ---   --   ---xx   flac  0.5449  JGB1992-08-02 Chula Vista CA FOB DAUD GEMS.(04).flac
     5:44.42       60780428 B   ---   --   ---xx   flac  0.5615  JGB1992-08-02 Chula Vista CA FOB DAUD GEMS.(05).flac
     0:38.64        6853772 B   ---   --   ---xx   flac  0.4214  JGB1992-08-02 Chula Vista CA FOB DAUD GEMS.(06).flac
     8:54.33       94275260 B   ---   --   ---xx   flac  0.5216  JGB1992-08-02 Chula Vista CA FOB DAUD GEMS.(07).flac
     0:38.16        6740876 B   ---   --   ---xx   flac  0.4601  JGB1992-08-02 Chula Vista CA FOB DAUD GEMS.(08).flac
     4:07.06       43584956 B   ---   --   ---xx   flac  0.5007  JGB1992-08-02 Chula Vista CA FOB DAUD GEMS.(09).flac
     8:36.51       91142396 B   ---   --   ---xx   flac  0.5979  JGB1992-08-02 Chula Vista CA FOB DAUD GEMS.(10).flac
    14:43.59      155900012 B   ---   --   ---xx   flac  0.5216  JGB1992-08-02 Chula Vista CA FOB DAUD GEMS.(11).flac
     0:33.39        5912972 B   ---   --   ---xx   flac  0.4235  JGB1992-08-02 Chula Vista CA FOB DAUD GEMS.(12).flac
     6:07.64       64889372 B   ---   --   ---xx   flac  0.5653  JGB1992-08-02 Chula Vista CA FOB DAUD GEMS.(13).flac
     0:30.04        5301452 B   ---   --   ---xx   flac  0.4114  JGB1992-08-02 Chula Vista CA FOB DAUD GEMS.(14).flac
     7:30.12       79408268 B   ---   --   ---xx   flac  0.5663  JGB1992-08-02 Chula Vista CA FOB DAUD GEMS.(15).flac
     7:43.58       81809660 B   ---   --   ---xx   flac  0.5268  JGB1992-08-02 Chula Vista CA FOB DAUD GEMS.(16).flac
     7:22.72       78138188 B   ---   --   ---xx   flac  0.5205  JGB1992-08-02 Chula Vista CA FOB DAUD GEMS.(17).flac
     8:48.32       93214508 B   ---   --   ---xx   flac  0.5497  JGB1992-08-02 Chula Vista CA FOB DAUD GEMS.(18).flac
     0:46.22        8166188 B   ---   --   ---xx   flac  0.4331  JGB1992-08-02 Chula Vista CA FOB DAUD GEMS.(19).flac
    11:21.17      120168428 B   ---   --   ---xx   flac  0.5038  JGB1992-08-02 Chula Vista CA FOB DAUD GEMS.(20).flac
     6:22.15       67420124 B   ---   --   ---xx   flac  0.6007  JGB1992-08-02 Chula Vista CA FOB DAUD GEMS.(21).flac
   125:31.50     1328586924 B                            0.5356  (21 files)




More information about the bittorrent mailing list