[bittorrent] gd90-07-12.fob-schoeps34.97709.flac16 **Only AUD In Database**

Automated Mailer noreply-bt.e at etree.org
Fri Mar 20 15:22:36 MDT 2009


Band:           Grateful Dead
Torrent Name:   gd90-07-12.fob-schoeps34.97709.flac16 **Only AUD In Database**
Uploaded by:    ebelgee
DB Link:        http://db.etree.org/shninfo_detail.php?shnid=97709 
Details:        http://bt.etree.org/details.php?id=523561

Contact the seeder at http://db.etree.org/ebelgee

If the link to this show does not work, it was probably removed for
being non-trade-friendly.

Description / text file:
-------------------------
Grateful Dead 
Robert F. Kennedy Stadium 
Washington, DC
7-12-1990


Source:   FOB-Schoeps CMC3 MK4-> Oade P/S->Sony D10 Pro->DAT->CDR->WAV->FLAC


Transfer: Dat Clone->Panasonic SV3700-> Marantz CDR 615-> CDR Ripped with EAC (No Errors)
	  Tracks Named -> Flac (Level 8) with Traders Little Helper and Tagged 
          with Foobar 2000. Transfers by Pete Ebel on March 3, 2009



Set One:
01. Let The Good Times Roll
02. Feel Like A Stranger
03. Bertha
04. Just A Little Light
05. Queen Jane Approximately
06. Stagger Lee
07. Cassidy
08. Tennessee Jed
09. The Music Never Stopped

Set Two:
01. Take A Step Back
02. Box Of Rain
03. Victim Or The Crime
04. Foolish Heart
05. Dark Star
06. Drums
Disc #3:
01. Space
02. All Along The Watchtower
03. Dear Mr. Fantasy 
04. Hey Jude
05. Touch Of Grey 
Encore:
06. The Weight


Notes:
*Heavy rain throughout the show

shntool 3.0.4
Copyright (C) 2000-2007 Jason Jordan <shnutils at freeshell.org>

   length     expanded size    cdr  WAVE problems  fmt   ratio  filename
    6:09.14       65124572 B   ---   --   ---xx   flac  0.4755  gd90-07-12d1t01.flac
   10:38.72      112712588 B   ---   --   ---xx   flac  0.4582  gd90-07-12d1t02.flac
    7:20.26       77677196 B   ---   --   ---xx   flac  0.4892  gd90-07-12d1t03.flac
    6:32.64       69299372 B   ---   --   ---xx   flac  0.4804  gd90-07-12d1t04.flac
    7:41.32       81395708 B   ---   --   ---xx   flac  0.5044  gd90-07-12d1t05.flac
    7:04.74       74967692 B   ---   --   ---xx   flac  0.4655  gd90-07-12d1t06.flac
    9:10.31       97092956 B   ---   --   ---xx   flac  0.4644  gd90-07-12d1t07.flac
    8:01.37       84935468 B   ---   --   ---xx   flac  0.5248  gd90-07-12d1t08.flac
    8:02.65       85177724 B   ---   --   ---xx   flac  0.5372  gd90-07-12d1t09.flac
    1:35.21       16807436 B   ---   --   ---xx   flac  0.4605  gd90-07-12d2t01.flac
    5:20.62       56593868 B   ---   --   ---xx   flac  0.5279  gd90-07-12d2t02.flac
    8:22.48       88665740 B   ---   --   ---xx   flac  0.5148  gd90-07-12d2t03.flac
   10:09.54      107554652 B   ---   --   ---xx   flac  0.5040  gd90-07-12d2t04.flac
   24:46.67      262288028 B   ---   --   ---xx   flac  0.4835  gd90-07-12d2t05.flac
   10:51.71      115003436 B   ---   --   ---xx   flac  0.4429  gd90-07-12d2t06.flac
   15:14.20      161276684 B   ---   --   ---xx   flac  0.3864  gd90-07-12d3t01.flac
    5:46.57       61168508 B   ---   --   ---xx   flac  0.5301  gd90-07-12d3t02.flac
    4:52.60       51649964 B   ---   --   ---xx   flac  0.5113  gd90-07-12d3t03.flac
    4:11.20       44323484 B   ---   --   ---xx   flac  0.5355  gd90-07-12d3t04.flac
    8:36.54       91149452 B   ---   --   ---xx   flac  0.5235  gd90-07-12d3t05.flac
    6:38.32       70282508 B   ---   --   ---xx   flac  0.5324  gd90-07-12d3t06.flac
  177:10.06     1875147036 B                            0.4856  (21 files)






More information about the bittorrent mailing list