[bittorrent] wsp1997-07-05.km140.unknown.19910.flac16 [wsp1997 project]

Automated Mailer noreply-bt.e at etree.org
Wed Mar 18 20:05:34 MDT 2009


Band:           Widespread Panic
Torrent Name:   wsp1997-07-05.km140.unknown.19910.flac16 [wsp1997 project]
Uploaded by:    mikepanic
DB Link:        
Details:        http://bt.etree.org/details.php?id=523520

Contact the seeder at http://db.etree.org/mikepanic

If the link to this show does not work, it was probably removed for
being non-trade-friendly.

Description / text file:
-------------------------
Widespread Panic
Summerfest, Miller Oasis Stage
Milwaukee, WI
7/5/97

Source: Neumann KM-140 > Beyer MV-100 > SBM-1
Thanks to JJ Clifton for the DATS!

Conversion: CTD8000R-S > VDAT > CDWave > FLAC Frontend (level 6) > flac
WaveLab 4.0 used to put fades at the beginning and end of sets.
Converted and seeded by Jeff Milbourn (j.milbourn at comcast.net)

Disc 1:		
01) Tall Boy >
02) C. Brown
03) Junior >
04) Aunt Avis > 
05) You Got Yours
06) Hatfield 
07) Radio Child
08) I'm Not Alone 
09) Drums * >

Disc 2:
01) Makes Sense To Me
02) Pickin' Up The Pieces *
03) Fishwater
Encore)
04) Driving Song >
05) Disco >
06) Driving Song >
07) Breathing Slow
 				
* with Fred LeBlanc (Cowboy Mouth) on percussion
 

------------------------------------------------------
FLAC Fingerprint

wsp97-07-05d1t1.flac:7e6fd01fdb1d1793b41756d44208d176
wsp97-07-05d1t2.flac:ba81ea320762f434f617ae7e49b81ba0
wsp97-07-05d1t3.flac:30021f0d2bf4d55121ccbe565ca01cf9
wsp97-07-05d1t4.flac:6d1d428d5acb4c97ce34f00eb8bbd32a
wsp97-07-05d1t5.flac:302463016010763118d6be5722630cd8
wsp97-07-05d1t6.flac:304a0099be62964661003a1d38d78414
wsp97-07-05d1t7.flac:ff52467161239b1b16a1737341ecea39
wsp97-07-05d1t8.flac:33ad5ed3810f35cbc307c48266636201
wsp97-07-05d1t9.flac:1dc909600b0a1631f99f88bccc195f04
wsp97-07-05d2t1.flac:b9632ed100d8cbb27b73dddc55561e05
wsp97-07-05d2t2.flac:3cc41f96b86c9d9fabcbe07a8fa23dfd
wsp97-07-05d2t3.flac:b800ca4936d421bb30d907d8d705d7eb
wsp97-07-05d2t4.flac:56b26716889808a7685028a2c6789d4f
wsp97-07-05d2t5.flac:6b9ea8a08dc039528137a1fc7fdc7f89
wsp97-07-05d2t6.flac:5d2c9491d910b0387502efabab85dc59
wsp97-07-05d2t7.flac:e5370f4b284852a14e4c8ab48978ee38

******edit Original txt*********

Added Shntool output
Renamed tracks to wspYYYY-MM-DD format

length     expanded size   cdr  WAVE problems filename
     6:20.22       67083788    ---   --   ---xx   wsp97-07-05d1t1.flac
     6:54.60       73170764    ---   --   ---xx   wsp97-07-05d1t2.flac
     8:05.33       85631660    ---   --   ---xx   wsp97-07-05d1t3.flac
     6:53.33       72930860    ---   --   ---xx   wsp97-07-05d1t4.flac
     6:35.06       69692156    ---   --   ---xx   wsp97-07-05d1t5.flac
    11:09.13      118042220    ---   --   ---xx   wsp97-07-05d1t6.flac
     6:47.45       71900684    ---   --   ---xx   wsp97-07-05d1t7.flac
     9:01.56       95564156    ---   --   ---xx   wsp97-07-05d1t8.flac
     7:13.52       76503548    ---   --   ---xx   wsp97-07-05d1t9.flac
     5:07.73       54326540    ---   --   ---xx   wsp97-07-05d2t1.flac
     5:33.40       58835324    ---   --   ---xx   wsp97-07-05d2t2.flac
    10:41.73      113244140    ---   --   ---xx   wsp97-07-05d2t3.flac
     5:25.15       57365324    ---   --   ---xx   wsp97-07-05d2t4.flac
     6:20.46       67140236    ---   --   ---xx   wsp97-07-05d2t5.flac
     2:31.25       26695244    ---   --   ---xx   wsp97-07-05d2t6.flac
     3:54.60       41418764    ---   --   ---xx   wsp97-07-05d2t7.flac
   108:36.52     1149545408 B                     (totals for 16 files, 0.5170 overall compression ratio)




More information about the bittorrent mailing list