[bittorrent] 2009/03/08 Hampton MK41 M248 MME TS TAGGED: uve tried the rest, now try the best

Automated Mailer noreply-bt.e at etree.org
Wed Mar 18 18:16:54 MDT 2009


Band:           Phish
Torrent Name:   2009/03/08 Hampton MK41 M248 MME TS TAGGED: uve tried the rest, now try the best 
Uploaded by:    stsWook
DB Link:        
Details:        http://bt.etree.org/details.php?id=523519

Contact the seeder at http://db.etree.org/stsWook

If the link to this show does not work, it was probably removed for
being non-trade-friendly.

Description / text file:
-------------------------
Phish
3/8/2009
Hampton VA
Hampton Coliseum

YOU'VE TRIED THE REST, NOW TRY THE BEST

Source: Schoeps MK41>KC5>CMC6>Oade M248>Apogee MiniMe>Tascam HD-P2
9' stand DFC FOTS Aimed At Stacks (Approx 30deg)

Processing: CF>Laptop>Wavelab 5(Fades, Tracking, Waves L3 Ultramaximizer, SRC, UV22HR Dithering)>
Flac (Level 8, Align On Sector Boundaries)>Tag & Rename(tags)

*** 16 bit/44.1k ***
Intended for CD

"Taped" and Processed by Innis Nelson (innisn at gmail dot com)


Set 1:
1	Intro		0:44
2	Sanity		3:48
3	Wilson		5:01
4	Foam		8:39
5	Bathtub Gin		10:58
6	Undermind		7:29
7	AC/DC Bag		5:18
8	My Friend, My Friend		6:27
9	Scent Of A Mule		8:37
10	All Of These Dreams		4:00
11	Maze		10:41
12	She Thinks I Still Care		4:31
13	Army Of One		4:37
14	Tube		6:14
15	Cars, Trucks, Buses		4:35
16	Free		8:35
17	Frankenstein * Page on Keytar		5:40

Set 2:
1	Intro		1:52
2	Down With Disease >		22:20
3	Seven Below		7:43
4	The Horse >		1:15
5	Silent In The Morning		5:00
6	Twist		8:53
7	2001 >		6:16
8	Moma Dance		6:53
9	While My Guitar Gently Weeps		6:32
10	Wading In A Velvet Sea		5:53
11	Slave To The Traffic Light		10:01
12	Crowd		3:26
Encore:
13	Happy Birthday**	2:13
14	Contact		7:40
15	Bug		6:50
16	Tweezer Reprise		4:49

** with Happy Birthday to Leonard Fishman (Jon's dad) before the song sung by band & audience

Thanks to Andy Gadiel's Phish Page for setlist

flac fingerprint:
phish20090308s1_01_Intro.flac:8ec5df2b91b08f752971904e28eaa98b
phish20090308s1_02_Sanity.flac:54ac29b8d64204ce84e81989895951f3
phish20090308s1_03_Wilson.flac:8a002ce804a2121febec0420597d0242
phish20090308s1_04_Foam.flac:665c62db546eab7e3a8a9058d13f87b7
phish20090308s1_05_Bathtub_Gin.flac:8d525cbc639497e598bcf29d445a6907
phish20090308s1_06_Undermind.flac:974fc1a629cf2ddeb9160323b25ba5b6
phish20090308s1_07_Ac_DC_Bag.flac:f3f1a71ce487d9e7281d7f18332c6b84
phish20090308s1_08_My_Friend_My_Friend.flac:d3aacc6e8e8dd268efac96897870de20
phish20090308s1_09_Scent_Of_A_Mule.flac:2c518d494c3eb622bad4066b166ab136
phish20090308s1_10_All_Of_These_Dreams.flac:661670c9e73147ea9b0291ab48cb4e5f
phish20090308s1_11_Maze.flac:65bff67fb4c478583388a96f4faad8f4
phish20090308s1_12_She_Thinks_I_Still_Care.flac:c5ccf3320564febca8d4d60e1625117c
phish20090308s1_13_Army_of_One.flac:2566e673cbdb02b8a15a36d6665d00b9
phish20090308s1_14_Tube.flac:4a89f9aca12554cbc75c4a4637d393c2
phish20090308s1_15_Cars_Trucks_Buses.flac:ac127c543c3688e6f9326f134aa842bc
phish20090308s1_16_Free.flac:7c9c8cff1e5f7b88052e59f3cd989fb3
phish20090308s1_17_Frankenstein.flac:1f86d0e971a531a678f261a068684d6e
phish20090308s2_01_Intro.flac:03e645d94b0059e9dda8bda59ab79a30
phish20090308s2_02_Down_with_Disease.flac:4fbbee49d05863acfa06f897b6339699
phish20090308s2_03_Seven_Below.flac:8ccd269ab3c20db34298cb0e6b7cd983
phish20090308s2_04_The_Horse.flac:5787a875fb4b518115cbeffec826dc84
phish20090308s2_05_Silent_in_the_Morning.flac:d92f00b3e11d4086cbe02d2d14b73dcf
phish20090308s2_06_Twist.flac:c347a277ecc907efd1d20923a27e86ee
phish20090308s2_07_2001.flac:c0fe68540d4b9a7b742f32c0d2dfb879
phish20090308s2_08_Moma_Dance.flac:a2babb91459e4b3c84213c2b13dea3d3
phish20090308s2_09_While_My_Guitar_Gently_Weeps.flac:8a76a5f05d6e5b6b3e73d021d6569429
phish20090308s2_10_Wading_in_a_Velvet_Sea.flac:1ba2792535681bd0ee9dd15d1c525fb2
phish20090308s2_11_Slave_to_the_Traffic_Light.flac:e4709791f70c52bd9f5833ec4fba5e1f
phish20090308s2_12_Crowd.flac:27d71383e7f229bd75b9a6d207fa68e4
phish20090308s2_13_Happy_Birthday.flac:15380109f96ef620c2fe774d2699f238
phish20090308s2_14_Contact.flac:611416f22cd3c3b91500051e54453ffd
phish20090308s2_15_Bug.flac:a80ca0e426688ee27871ed349b62079d
phish20090308s2_16_Tweezer_Reprise.flac:d01a2e9f20e43da27e93ef3cb2b02c4b

shntool output:
    length     expanded size    cdr  WAVE problems  fmt   ratio  filename
     0:44.40        7855724 B   ---   --   ---xx   flac  0.5854  phish20090308s1
_01_Intro.flac
     3:48.01       40221596 B   ---   --   ---xx   flac  0.6098  phish20090308s1
_02_Sanity.flac
     5:01.30       53167004 B   ---   --   ---xx   flac  0.6487  phish20090308s1
_03_Wilson.flac
     8:39.38       91641020 B   ---   --   ---xx   flac  0.6028  phish20090308s1
_04_Foam.flac
    10:58.58      116207660 B   ---   --   ---xx   flac  0.6306  phish20090308s1
_05_Bathtub_Gin.flac
     7:29.25       79262444 B   ---   --   ---xx   flac  0.5994  phish20090308s1
_06_Undermind.flac
     5:18.71       56262236 B   ---   --   ---xx   flac  0.6537  phish20090308s1
_07_Ac_DC_Bag.flac
     6:27.45       68372684 B   ---   --   ---xx   flac  0.6345  phish20090308s1
_08_My_Friend_My_Friend.flac
     8:37.09       91220012 B   ---   --   ---xx   flac  0.5904  phish20090308s1
_09_Scent_Of_A_Mule.flac
     4:00.07       42352508 B   ---   --   ---xx   flac  0.5766  phish20090308s1
_10_All_Of_These_Dreams.flac
    10:41.41      113168876 B   ---   --   ---xx   flac  0.6373  phish20090308s1
_11_Maze.flac
     4:31.59       47943212 B   ---   --   ---xx   flac  0.5835  phish20090308s1
_12_She_Thinks_I_Still_Care.flac
     4:37.53       48987500 B   ---   --   ---xx   flac  0.6049  phish20090308s1
_13_Army_of_One.flac
     6:14.43       66074780 B   ---   --   ---xx   flac  0.6364  phish20090308s1
_14_Tube.flac
     4:35.69       48672332 B   ---   --   ---xx   flac  0.6293  phish20090308s1
_15_Cars_Trucks_Buses.flac
     8:35.34       90926012 B   ---   --   ---xx   flac  0.6459  phish20090308s1
_16_Free.flac
     5:40.11       60001916 B   ---   --   ---xx   flac  0.6843  phish20090308s1
_17_Frankenstein.flac
     1:52.22       19808588 B   ---   --   ---xx   flac  0.4900  phish20090308s2
_01_Intro.flac
    22:20.60      236517164 B   ---   --   ---xx   flac  0.6378  phish20090308s2
_02_Down_with_Disease.flac
     7:43.46       81781436 B   ---   --   ---xx   flac  0.6048  phish20090308s2
_03_Seven_Below.flac
     1:15.17       13270028 B   ---   --   ---xx   flac  0.4791  phish20090308s2
_04_The_Horse.flac
     5:00.52       53042348 B   ---   --   ---xx   flac  0.5872  phish20090308s2
_05_Silent_in_the_Morning.flac
     8:53.10       94044764 B   ---   --   ---xx   flac  0.6123  phish20090308s2
_06_Twist.flac
     6:16.07       66342908 B   ---   --   ---xx   flac  0.6444  phish20090308s2
_07_2001.flac
     6:53.09       72874412 B   ---   --   ---xx   flac  0.6512  phish20090308s2
_08_Moma_Dance.flac
     6:32.50       69266444 B   ---   --   ---xx   flac  0.6455  phish20090308s2
_09_While_My_Guitar_Gently_Weeps.flac
     5:53.31       62342156 B   ---   --   ---xx   flac  0.6054  phish20090308s2
_10_Wading_in_a_Velvet_Sea.flac
    10:01.08      106035260 B   ---   --   ---xx   flac  0.5970  phish20090308s2
_11_Slave_to_the_Traffic_Light.flac
     3:26.48       36451340 B   ---   --   ---xx   flac  0.5489  phish20090308s2
_12_Crowd.flac
     2:13.31       23534156 B   ---   --   ---xx   flac  0.5636  phish20090308s2
_13_Happy_Birthday.flac
     7:40.70       81308684 B   ---   --   ---xx   flac  0.5736  phish20090308s2
_14_Contact.flac
     6:50.06       72338156 B   ---   --   ---xx   flac  0.6294  phish20090308s2
_15_Bug.flac
     4:49.71       51146636 B   ---   --   ---xx   flac  0.6406  phish20090308s2
_16_Tweezer_Reprise.flac
   213:45.47     2262441996 B                            0.6186  (33 files)




More information about the bittorrent mailing list