[bittorrent] 2009/03/06 Hampton MK41 M248 MME TS TAGGED: uve tried the rest, now try the best

Automated Mailer noreply-bt.e at etree.org
Wed Mar 18 18:07:42 MDT 2009


Band:           Phish
Torrent Name:   2009/03/06 Hampton MK41 M248 MME TS TAGGED: uve tried the rest, now try the best 
Uploaded by:    stsWook
DB Link:        
Details:        http://bt.etree.org/details.php?id=523517

Contact the seeder at http://db.etree.org/stsWook

If the link to this show does not work, it was probably removed for
being non-trade-friendly.

Description / text file:
-------------------------
Phish
3/6/2009
Hampton VA
Hampton Coliseum


Source: Schoeps MK41>KC5>CMC6>Oade M248>Apogee MiniMe>Tascam HD-P2
9' stand DFC FOTS Aimed At Stacks (Approx 30deg)

Processing: CF>Laptop>Wavelab 5(Fades, Tracking, Waves L3 Ultramaximizer, SRC, UV22HR Dithering)>
Flac (Level 8, Align On Sector Boundaries)>Tag & Rename(tags)

*** 16 bit/44.1k ***
Intended for CD

"Taped" and Processed by Innis Nelson (innisn at gmail dot com)


Set 1:
1	Intro		0:59
2	Fluffhead		15:46
3	Divided Sky		14:10
4	Chalkdust Torture		7:29
5	Sample In A Jar		6:08
6	Stash		12:20
7	I Didn't Know		4:02
8	Oh Kee Pa Ceremony >		1:50
9	Suzy Greenberg		5:43
10	Farmhouse		5:20
11	NICU		5:09
12	Horn		3:44
13	Rift		6:25
14	Train Song		3:14
15	Water In The Sky		4:01
16	Squirming Coil		7:38
17	David Bowie		10:31

Set 2:
1	Intro		1:43
2	Backwards Down The Number Line		6:04
3	Tweezer		12:50
4	Taste		9:21
5	Possum		8:25
6	Theme From The Bottom		8:38
7	First Tube		7:20
8	Harry Hood		13:51
9	Waste		5:37
10	You Enjoy Myself		19:57
11	Crowd		4:22
Encore:
12	Grind		1:57
13	Bouncing Around The Room		3:59
14	Loving Cup		7:24

Thanks to Andy Gadiel's Phish Page for setlist

flac fingerprint:
phish20090306s1_01_Intro.flac:8f614413c90766e415475eb4ae4d70ff
phish20090306s1_02_Fluffhead.flac:941f525a87082d0735750b3e53e6c8e3
phish20090306s1_03_Divided_Sky.flac:9a4bc912c1fc76c89b5b66a8c0814667
phish20090306s1_04_Chalkdust_Torture.flac:a3b077fd67b55fcab29b488f6c9703b1
phish20090306s1_05_Sample_In_A_Jar.flac:e7b1f0b5354f588dc1dde618c0752062
phish20090306s1_06_Stash.flac:d031342eccfb3d0c7ff1adf785a06228
phish20090306s1_07_I_Didnt_Know.flac:6f6a8e3b23eabe075a07dfa8e480e67b
phish20090306s1_08_Oh_Kee_Pa_Ceremony.flac:6016a2e0d1f1fe6878a6e5177f56faad
phish20090306s1_09_Suzy_Greenberg.flac:1153d52789030538addc8ce658b3582c
phish20090306s1_10_Farmhouse.flac:e6a2f276e0d6335de17c9428f8784b44
phish20090306s1_11_NICU.flac:b1c811f920664f555c94379f63e87ce5
phish20090306s1_12_Horn.flac:8fabfbdca7df56a5fd46e923a62fa390
phish20090306s1_13_Rift.flac:f18c429653a90e5866900c34b2bab713
phish20090306s1_14_Train_Song.flac:3732302051a79d0854a0d4fa17f2bc7b
phish20090306s1_15_Water_In_The_Sky.flac:d47cf7fe69b2f1c9b0c15e28a278d63e
phish20090306s1_16_Squirming_Coil.flac:a11373e16ec2c1ce649d7dc4589b1543
phish20090306s1_17_David_Bowie.flac:a9b39fe8def81d78d2152070019c74be
phish20090306s2_01_Intro.flac:939ea0726c41bd73a236601103b96b44
phish20090306s2_02_Backwards_Down_The_Number_Line.flac:1ed76acdcb0f2273737eaeee9b2c7763
phish20090306s2_03_Tweezer.flac:a9656aa2cbe7865af801f1c07e1fc65e
phish20090306s2_04_Taste.flac:4cc245f6fee6ae954530dd417a1f80db
phish20090306s2_05_Possum.flac:cbe0fce58b695811aae110c8be497f15
phish20090306s2_06_Theme_From_The_Bottom.flac:7c9131d9e6f865b796c6bd7010ac869b
phish20090306s2_07_First_Tube.flac:a8ccb3f0a97d9f5664f5073ed0bed4d4
phish20090306s2_08_Harry_Hood.flac:55f5524682016101f6d89ee0baa99392
phish20090306s2_09_Waste.flac:224621e44c7a9b335af4f8bfd6cffb4d
phish20090306s2_10_You_Enjoy_Myself.flac:cfabd57dcf095f6666721f1cfbca7ba6
phish20090306s2_11_Crowd.flac:583757d6b7df1cde8b2ad2cd88f2317b
phish20090306s2_12_Grind.flac:a6da9e115888530a19b7d7516de7e2b3
phish20090306s2_13_Bouncing_Around_The_Room.flac:889ef46e3f961f22a81a020033a2784e
phish20090306s2_14_Loving_Cup.flac:45f53092529b54235c55528d3e40276e

shntool output:
    length     expanded size    cdr  WAVE problems  fmt   ratio  filename
     0:59.71       10574636 B   ---   --   ---xx   flac  0.5499  phish20090306s1
_01_Intro.flac
    15:46.46      166982636 B   ---   --   ---xx   flac  0.5901  phish20090306s1
_02_Fluffhead.flac
    14:10.36      150024716 B   ---   --   ---xx   flac  0.5660  phish20090306s1
_03_Divided_Sky.flac
     7:29.58       79340060 B   ---   --   ---xx   flac  0.6077  phish20090306s1
_04_Chalkdust_Torture.flac
     6:08.33       64992860 B   ---   --   ---xx   flac  0.5643  phish20090306s1
_05_Sample_In_A_Jar.flac
    12:20.26      130597196 B   ---   --   ---xx   flac  0.5399  phish20090306s1
_06_Stash.flac
     4:02.25       42747644 B   ---   --   ---xx   flac  0.5061  phish20090306s1
_07_I_Didnt_Know.flac
     1:50.48       19516940 B   ---   --   ---xx   flac  0.5191  phish20090306s1
_08_Oh_Kee_Pa_Ceremony.flac
     5:43.25       60564044 B   ---   --   ---xx   flac  0.6012  phish20090306s1
_09_Suzy_Greenberg.flac
     5:20.00       56448044 B   ---   --   ---xx   flac  0.5823  phish20090306s1
_10_Farmhouse.flac
     5:09.40       54601724 B   ---   --   ---xx   flac  0.5620  phish20090306s1
_11_NICU.flac
     3:44.70       39678284 B   ---   --   ---xx   flac  0.5577  phish20090306s1
_12_Horn.flac
     6:25.54       68041052 B   ---   --   ---xx   flac  0.5719  phish20090306s1
_13_Rift.flac
     3:14.00       34221644 B   ---   --   ---xx   flac  0.4869  phish20090306s1
_14_Train_Song.flac
     4:01.19       42557132 B   ---   --   ---xx   flac  0.5003  phish20090306s1
_15_Water_In_The_Sky.flac
     7:38.50       80908844 B   ---   --   ---xx   flac  0.5491  phish20090306s1
_16_Squirming_Coil.flac
    10:31.12      111336668 B   ---   --   ---xx   flac  0.5796  phish20090306s1
_17_David_Bowie.flac
     1:43.68       18329180 B   ---   --   ---xx   flac  0.4432  phish20090306s2
_01_Intro.flac
     6:04.22       64261388 B   ---   --   ---xx   flac  0.5866  phish20090306s2
_02_Backwards_Down_The_Number_Line.flac
    12:50.13      135858620 B   ---   --   ---xx   flac  0.5896  phish20090306s2
_03_Tweezer.flac
     9:21.71       99127436 B   ---   --   ---xx   flac  0.5870  phish20090306s2
_04_Taste.flac
     8:25.17       89122028 B   ---   --   ---xx   flac  0.6085  phish20090306s2
_05_Possum.flac
     8:38.68       91535180 B   ---   --   ---xx   flac  0.5558  phish20090306s2
_06_Theme_From_The_Bottom.flac
     7:20.16       77653676 B   ---   --   ---xx   flac  0.6239  phish20090306s2
_07_First_Tube.flac
    13:51.52      146710748 B   ---   --   ---xx   flac  0.5733  phish20090306s2
_08_Harry_Hood.flac
     5:37.51       59566796 B   ---   --   ---xx   flac  0.5501  phish20090306s2
_09_Waste.flac
    19:57.20      211197884 B   ---   --   ---xx   flac  0.5611  phish20090306s2
_10_You_Enjoy_Myself.flac
     4:22.45       46322684 B   ---   --   ---xx   flac  0.4814  phish20090306s2
_11_Crowd.flac
     1:57.43       20739980 B   ---   --   ---xx   flac  0.5304  phish20090306s2
_12_Grind.flac
     3:59.06       42173756 B   ---   --   ---xx   flac  0.5658  phish20090306s2
_13_Bouncing_Around_The_Room.flac
     7:24.53       78446300 B   ---   --   ---xx   flac  0.6170  phish20090306s2
_14_Loving_Cup.flac
   226:12.33     2394179780 B                            0.5693  (31 files)




More information about the bittorrent mailing list