[bittorrent] Victor Wooten The Ark Ann Arbor, Michigan 3/16/2009

Automated Mailer noreply-bt.e at etree.org
Tue Mar 17 11:09:42 MDT 2009


Band:           Victor Wooten
Torrent Name:   Victor Wooten The Ark Ann Arbor, Michigan 3/16/2009
Uploaded by:    zmanatl
DB Link:        
Details:        http://bt.etree.org/details.php?id=523488

Contact the seeder at http://db.etree.org/zmanatl

If the link to this show does not work, it was probably removed for
being non-trade-friendly.

Description / text file:
-------------------------
Victor Wooten And J.D. Blair
The Ark 
Ann Arbor, Michigan
3/16/2009

Source: Schoeps CCM4V'S(din)>Lunatec V2>Benchmark AD2K>
Sound Devices 722 (24/48)
Location: FOB/DFC/KFC/ZFC/AARP Row B, Seat 3, 20' From Stage, 4' High
DSP: Sound Devices 722>Sound Forge 9.0>CD Wave>flac(16)
Recorded By: Z-Man
Seeded By: Z-Man
 
Disc I 1st Set

01 Announcements By Bill
02 Gail Mitchell On Membership
03 Introduction By Bill
04 ? >
05 ? >
06 Two Minds, One Groove >
07 ? >
08 Wade In The Water  
09 Banter On Bass
10 Victor Demonstates Loops >
11 What Did He Say >
12 ?
13 Banter - Victor Introduces His Kids 
14 *#Better People

Disc II 2nd Set

01 Banter
02 ? >
03 ? >
04 ? >
05 Jingle Bells >
06 ? 
07 ? >
08 @? >
09 @Yesterday > 
10 @Norwegian Wood Jam >
11 @? 
Encore:
12 Thank You/Tunig
13 What Did He Say

* With Kayla Wooten On Vocals
# With Adam Wooten On Drums
@ Victor Wooten Bass Solo

Flac fingerprint 

victorwooten2009-03-16d01t01.flac:436ecfd8e44d0926658112b8dc9df622
victorwooten2009-03-16d01t02.flac:1c3a0414217138ae0cb9ad3032025cb7
victorwooten2009-03-16d01t03.flac:a576f64f50793cccde1980b180f45eaf
victorwooten2009-03-16d01t04.flac:83cd31647db2246c80ce9d0bb78f1738
victorwooten2009-03-16d01t05.flac:98995ed97e1b8079ca6c48087fc63dc1
victorwooten2009-03-16d01t06.flac:f0a6fea2d085b99381be5e13b7679bbc
victorwooten2009-03-16d01t07.flac:ce2977f4fb29c895bf392f4d6ff47a3b
victorwooten2009-03-16d01t08.flac:04440a7f197329251590e8f5daed0853
victorwooten2009-03-16d01t09.flac:e0c5b8de34e3bd33d1732700dff13559
victorwooten2009-03-16d01t10.flac:a96aa3c876ca09f800fd674f94818567
victorwooten2009-03-16d01t11.flac:c3ef0883fb89a25e17c675cd78610d77
victorwooten2009-03-16d01t12.flac:abe32d0184a67e8a025e22d471ef201a
victorwooten2009-03-16d01t13.flac:f545bd3b19de0c7f137c8e3b012a910a
victorwooten2009-03-16d01t14.flac:771d1f7e8dcf49b95be76cc1bf689862
victorwooten2009-03-16d02t01.flac:a422782f03643884d6b9663e3caef881
victorwooten2009-03-16d02t02.flac:2a9f774e21e4330aa1e8d81938e5e17b
victorwooten2009-03-16d02t03.flac:bc7b48010e673dbc20e1dfd9bd5d9129
victorwooten2009-03-16d02t04.flac:4e51ea741457bb0643f61d88b85e44dd
victorwooten2009-03-16d02t05.flac:9bcb611ae43049ee0c95c63c825c90a5
victorwooten2009-03-16d02t06.flac:df1ea9b1a8f7969ec071af7e1b7e9c65
victorwooten2009-03-16d02t07.flac:ffee1df22ccdb93dc538dd83fdcd99cc
victorwooten2009-03-16d02t08.flac:5eb0d581a7dc2747d8b0f9a5da978d72
victorwooten2009-03-16d02t09.flac:dd348bb87c7694f8dcf5524d62bd8d1f
victorwooten2009-03-16d02t10.flac:10cf92948a04523824bfae06194a55a0
victorwooten2009-03-16d02t11.flac:8d780f644e1d427b59e61353e9b2a927
victorwooten2009-03-16d02t12.flac:5674ec84e7032013253ac3d418ee29be
victorwooten2009-03-16d02t13.flac:3d1273e19d2fbbf2e9601565d685f286

shntool 

    length     expanded size    cdr  WAVE problems  fmt   ratio  filename
     0:26.24        4642892 B   ---   --   ---xx   flac  0.3973  victorwooten2009-03-16d01t01.flac
     0:36.66        6505676 B   ---   --   ---xx   flac  0.2826  victorwooten2009-03-16d01t02.flac
     0:46.02        8119148 B   ---   --   ---xx   flac  0.4758  victorwooten2009-03-16d01t03.flac
     8:02.14       85057772 B   ---   --   ---xx   flac  0.4879  victorwooten2009-03-16d01t04.flac
     6:12.47       65731388 B   ---   --   ---xx   flac  0.4020  victorwooten2009-03-16d01t05.flac
     8:39.55       91681004 B   ---   --   ---xx   flac  0.3734  victorwooten2009-03-16d01t06.flac
     5:43.53       60629900 B   ---   --   ---xx   flac  0.3999  victorwooten2009-03-16d01t07.flac
     7:43.60       81814364 B   ---   --   ---xx   flac  0.3720  victorwooten2009-03-16d01t08.flac
     2:03.09       21718412 B   ---   --   ---xx   flac  0.2861  victorwooten2009-03-16d01t09.flac
     2:43.10       28776764 B   ---   --   ---xx   flac  0.2717  victorwooten2009-03-16d01t10.flac
     7:44.72       82018988 B   ---   --   ---xx   flac  0.3121  victorwooten2009-03-16d01t11.flac
     1:52.70       19921484 B   ---   --   ---xx   flac  0.4355  victorwooten2009-03-16d01t12.flac
     3:26.46       36446636 B   ---   --   ---xx   flac  0.3251  victorwooten2009-03-16d01t13.flac
     6:33.29       69393452 B   ---   --   ---xx   flac  0.4495  victorwooten2009-03-16d01t14.flac
     1:11.24       12580892 B   ---   --   ---xx   flac  0.3701  victorwooten2009-03-16d02t01.flac
     6:19.66       67010876 B   ---   --   ---xx   flac  0.4022  victorwooten2009-03-16d02t02.flac
     5:04.33       53703260 B   ---   --   ---xx   flac  0.3589  victorwooten2009-03-16d02t03.flac
     6:59.42       74010428 B   ---   --   ---xx   flac  0.3763  victorwooten2009-03-16d02t04.flac
     0:24.30        4304204 B   ---   --   ---xx   flac  0.4114  victorwooten2009-03-16d02t05.flac
     8:17.51       87790796 B   ---   --   ---xx   flac  0.3439  victorwooten2009-03-16d02t06.flac
     6:39.18       70425980 B   ---   --   ---xx   flac  0.3787  victorwooten2009-03-16d02t07.flac
     4:02.59       42827612 B   ---   --   ---xx   flac  0.1908  victorwooten2009-03-16d02t08.flac
     4:52.69       51671132 B   ---   --   ---xx   flac  0.2130  victorwooten2009-03-16d02t09.flac
     2:12.32       23360108 B   ---   --   ---xx   flac  0.2737  victorwooten2009-03-16d02t10.flac
    12:13.58      129437660 B   ---   --   ---xx   flac  0.3295  victorwooten2009-03-16d02t11.flac
     0:36.72        6519788 B   ---   --   ---xx   flac  0.4156  victorwooten2009-03-16d02t12.flac
     4:41.17       49608428 B   ---   --   ---xx   flac  0.5031  victorwooten2009-03-16d02t13.flac
   126:12.03     1335709044 B                            0.3661  (27 files)







More information about the bittorrent mailing list