[bittorrent] wsp1997-07-04.km140.unknown.19909.flac16 [wsp1997 project]

Automated Mailer noreply-bt.e at etree.org
Tue Mar 17 10:36:44 MDT 2009


Band:           Widespread Panic
Torrent Name:   wsp1997-07-04.km140.unknown.19909.flac16 [wsp1997 project]
Uploaded by:    mikepanic
DB Link:        
Details:        http://bt.etree.org/details.php?id=523487

Contact the seeder at http://db.etree.org/mikepanic

If the link to this show does not work, it was probably removed for
being non-trade-friendly.

Description / text file:
-------------------------
Widespread Panic
Summerfest, Miller Oasis Stage
Milwaukee, WI
7/4/97

Source: Neumann KM-140 > Beyer MV-100 > SBM-1
This show smokes!

Conversion: CTD8000R-S > VDAT > CDWave > FLAC Frontend (level 6) > flac
WaveLab 4.0 used to put fades at the beginning and end of discs.
Converted and seeded by Jeff Milbourn (j.milbourn at comcast.net)

Disc 1:		
01) Ain't Life Grand
02) Ain't No Use >
03) Rebirtha >
04) Wondering > 
05) Can't Get High
06) Diner
07) Happy
08) Papa's Home 
09) Drums >
10) Papa's Home

Disc 2:
01) Pilgrims
02) Hope In A Hopeless World
03) Travelin' Light
Encore)
04) Dream Song >
05) Blackout >
 
------------------------------------------------------
FLAC Fingerprint

wsp97-07-04d1t01.flac:f229cd239258bccb3a3f70aa0361a198
wsp97-07-04d1t02.flac:7f198a47ac2f738d832866f488088378
wsp97-07-04d1t03.flac:19af3e6d08dd61a4eca6fb4f86d6cc79
wsp97-07-04d1t04.flac:d5d375ed7a76dd35d0ef7bd614152a91
wsp97-07-04d1t05.flac:e9c70e3d02a5751df2dfc265e7fc20c4
wsp97-07-04d1t06.flac:6bc400401b252e43c17657d6e11ed138
wsp97-07-04d1t07.flac:1991c99d58a0014c640fd933fed2aadc
wsp97-07-04d1t08.flac:f560891a2f34069b9c9a18a12f903871
wsp97-07-04d1t09.flac:4f1d6eb54a6d28d78ebfbe05575dec51
wsp97-07-04d1t10.flac:4cdb22d16ccdb6d606566fb85694f848
wsp97-07-04d2t1.flac:fe273e2d65cc14bbf3e121a0980b0355
wsp97-07-04d2t2.flac:4120f71c0ba824a50c528100541b1140
wsp97-07-04d2t3.flac:f66b940811eb0f5a3c6f5cfc9c1711ef
wsp97-07-04d2t4.flac:ff22e206de8718751478d655e2c245b6
wsp97-07-04d2t5.flac:5bf7f6fc07a3392e28293d146613892c

******edit Original txt*********

Added Shntool output
Renamed tracks to wspYYYY-MM-DD format


 length     expanded size   cdr  WAVE problems filename
     6:06.01       64564796    ---   --   ---xx   wsp97-07-04d1t01.flac
     8:30.70       90128684    ---   --   ---xx   wsp97-07-04d1t02.flac
     8:35.73       91017740    ---   --   ---xx   wsp97-07-04d1t03.flac
     4:32.67       48138428    ---   --   ---xx   wsp97-07-04d1t04.flac
     3:31.19       37265132    ---   --   ---xx   wsp97-07-04d1t05.flac
    13:24.03      141832700    ---   --   ---xx   wsp97-07-04d1t06.flac
     7:19.74       77613692    ---   --   ---xx   wsp97-07-04d1t07.flac
     8:46.30       92857004    ---   --   ---xx   wsp97-07-04d1t08.flac
     8:14.08       87160460    ---   --   ---xx   wsp97-07-04d1t09.flac
     1:43.72       18338588    ---   --   ---xx   wsp97-07-04d1t10.flac
     8:25.73       89253740    ---   --   ---xx   wsp97-07-04d2t1.flac
     5:19.38       56361020    ---   --   ---xx   wsp97-07-04d2t2.flac
     7:30.61       79523516    ---   --   ---xx   wsp97-07-04d2t3.flac
     5:00.44       53023532    ---   --   ---xx   wsp97-07-04d2t4.flac
     6:28.66       68598476    ---   --   ---xx   wsp97-07-04d2t5.flac
   103:31.24     1095677508 B                     (totals for 15 files, 0.5350 overall compression ratio)





More information about the bittorrent mailing list