[bittorrent] gd1974-02-22.sbd.samaritano.26763.sbeok.shnf

Automated Mailer noreply-bt.e at etree.org
Mon Mar 16 14:02:50 MDT 2009


Band:           Grateful Dead
Torrent Name:   gd1974-02-22.sbd.samaritano.26763.sbeok.shnf
Uploaded by:    sanguine1
DB Link:        http://db.etree.org/shn/26763
Details:        http://bt.etree.org/details.php?id=523462

Contact the seeder at http://db.etree.org/sanguine1

If the link to this show does not work, it was probably removed for
being non-trade-friendly.

Description / text file:
-------------------------
2/22/74 - Grateful Dead
Winterland Arena, San Francisco, CA

Main Lineage:
Soundboard->Vault Master Reel->DAT 48k, transferred 1991 Gans,
1st 45 minutes (US Blues->Big River)

Soundboard->Master Reel->Cassette->DAT 44.1k, transferred 2/94 Dick,
Rest of show (Loose Lucy->UJB)


Patch Lineage:
Soundboard->Master Reel->Cassette->DAT->CD 

Transfer:
DAT->Audiphile 2496->Samplitude v7.02 Professional->SHN
De-clicked/popped using Cool Edit Pro v2.0
Patched using crossfades with Samplitude v7.02 Professional

Transfer, editing, and SHN by Joe Samaritano
11/10/2004

Notes:
1. Upgrade over previously circulating copies
2. Thanks to Michael P. Weitzman for getting this started, David Gans 
for the main Dat sources, and Charlie Miller for the patch source.
3. Small patches in Nobody's Fault and China Doll to cover missing 
parts, likely due to tape changes.

Set 1:
d1t01 - U.S. Blues
d1t02 - BIODTL
d1t03 - Brown-Eyed Women
d1t04 - Mexicali Blues
d1t05 - IMHBTR
d1t06 - BT Wind
d1t07 - TLEO
d1t08 - Big River
d1t09 - Loose Lucy
d1t10 - El Paso
d1t11 - Row Jimmy
d2t01 - Tico Tico
d2t02 - PITB

Set 2:
d2t03 - Tennessee Jed
d2t04 - MAMU
d2t05 - Ship of Fools
d2t06 - Race is On
d2t07 - China Cat
d2t08 - IKYR
d2t09 - Truckin'
d2t10 - Nobody's Fault
d2t11 - GDTRFB

Set 3:
d3t01 - 1/2 Step
d3t02 - Promised Land
d3t03 - Brokedown Palace
d3t04 - Jack Straw
d3t05 - Eyes of the World
d3t06 - China Doll
d3t07 - Wharf Rat
d3t08 - Sugar Mag
d3t09 - E: UJB


SHNTOOL OUTPUT:
    length     expanded size   cdr  WAVE problems filename
     5:45.38       60947420    ---   --   -----   gd1974-02-22d1t01.wav
     4:11.59       44415212    ---   --   -----   gd1974-02-22d1t02.wav
     5:11.13       54891020    ---   --   -----   gd1974-02-22d1t03.wav
     3:55.31       41526956    ---   --   -----   gd1974-02-22d1t04.wav
     4:41.40       49662524    ---   --   -----   gd1974-02-22d1t05.wav
     6:43.23       71143340    ---   --   -----   gd1974-02-22d1t06.wav
     5:49.46       61671836    ---   --   -----   gd1974-02-22d1t07.wav
     5:19.15       56306924    ---   --   -----   gd1974-02-22d1t08.wav
     7:31.50       79674044    ---   --   -----   gd1974-02-22d1t09.wav
     4:47.54       50753852    ---   --   -----   gd1974-02-22d1t10.wav
     8:35.74       91020092    ---   --   -----   gd1974-02-22d1t11.wav
     0:55.05        9713804    ---   --   -----   gd1974-02-22d2t01.wav
    20:48.22      220198988    ---   --   -----   gd1974-02-22d2t02.wav
     8:28.68       89771180    ---   --   -----   gd1974-02-22d2t03.wav
     3:56.67       41788028    ---   --   -----   gd1974-02-22d2t04.wav
     6:28.21       68492636    ---   --   -----   gd1974-02-22d2t05.wav
     3:21.49       35571692    ---   --   -----   gd1974-02-22d2t06.wav
     3:51.07       40764908    ---   --   -----   gd1974-02-22d2t07.wav
    10:29.25      111014444    ---   --   -----   gd1974-02-22d2t08.wav
     7:31.11       79582316    ---   --   -----   gd1974-02-22d2t09.wav
     5:19.67       56429228    ---   --   -----   gd1974-02-22d2t10.wav
     6:18.33       66756860    ---   --   -----   gd1974-02-22d2t11.wav
     8:51.29       93736652    ---   --   -----   gd1974-02-22d3t01.wav
     3:37.41       38375276    ---   --   -----   gd1974-02-22d3t02.wav
     5:33.37       58828268    ---   --   -----   gd1974-02-22d3t03.wav
     4:47.69       50789132    ---   --   -----   gd1974-02-22d3t04.wav
    12:49.17      135691628    ---   --   -----   gd1974-02-22d3t05.wav
     6:56.36       73467116    ---   --   -----   gd1974-02-22d3t06.wav
     9:34.34      101333612    ---   --   -----   gd1974-02-22d3t07.wav
     8:54.68       94357580    ---   --   -----   gd1974-02-22d3t08.wav
     7:20.49       77731292    ---   --   -----   gd1974-02-22d3t09.wav
   208:27.73     2206407860 B                     (totals for 31 files)




More information about the bittorrent mailing list