[bittorrent] Luke Mulholland Promo West Pavilion Columbus, Ohio 3/13/2009

Automated Mailer noreply-bt.e at etree.org
Mon Mar 16 10:53:15 MDT 2009


Band:           Other
Torrent Name:   Luke Mulholland Promo West Pavilion Columbus, Ohio 3/13/2009
Uploaded by:    zmanatl
DB Link:        
Details:        http://bt.etree.org/details.php?id=523457

Contact the seeder at http://db.etree.org/zmanatl

If the link to this show does not work, it was probably removed for
being non-trade-friendly.

Description / text file:
-------------------------
Luke Mulholland
Promo West Pavilion
Columbus, Ohio
3/13/2009

Source: Schoeps CCM4V'S(din)>Lunatec V2>Benchmark AD2K>
Sound Devices 722 (24/48)
Location: FOB/DFC/KFC/ZFC/AARP At First Rail 25' From Stage, 7' High
DSP: Sound Devices 722>Sound Forge 9.0>CD Wave>flac(16)
Recorded By: Z-Man
Seeded By: Z-Man
 
Disc I 

01 ? 
02 ?
03 Ramblin' On My Mind
04 ?
05 Drowning
06 Further
07 Band Introductions
 
Flac fingerprint 

lukemulholland2009-03-13d01t01.flac:8bdb206c2782c7468e25bc0c5b592147
lukemulholland2009-03-13d01t02.flac:3f42fcb9fd4932b395145c19d977e552
lukemulholland2009-03-13d01t03.flac:3f9d8289378c79843bbe08e9d1054f54
lukemulholland2009-03-13d01t04.flac:e82e267c28c3b65765b0cb8120c6c0b0
lukemulholland2009-03-13d01t05.flac:fe7fee152d6afa711a4cb0e0ecb6529e
lukemulholland2009-03-13d01t06.flac:3228950af5ff1550ec10438c85de368e
lukemulholland2009-03-13d01t07.flac:783c96f1977715ab354f994ed0a28ceb
 
shntool 

    length     expanded size    cdr  WAVE problems  fmt   ratio  filename
     3:46.62       40012268 B   ---   --   ---xx   flac  0.5005  lukemulholland2009-03-13d01t01.flac
     6:35.59       69816812 B   ---   --   ---xx   flac  0.4839  lukemulholland2009-03-13d01t02.flac
     5:14.06       55403756 B   ---   --   ---xx   flac  0.4348  lukemulholland2009-03-13d01t03.flac
     4:19.62       45833468 B   ---   --   ---xx   flac  0.4937  lukemulholland2009-03-13d01t04.flac
     4:31.64       47954972 B   ---   --   ---xx   flac  0.4903  lukemulholland2009-03-13d01t05.flac
     5:45.26       60919196 B   ---   --   ---xx   flac  0.5044  lukemulholland2009-03-13d01t06.flac
     1:12.19       12745532 B   ---   --   ---xx   flac  0.4092  lukemulholland2009-03-13d01t07.flac
    31:25.73      332686004 B                            0.4809  (7 files)













More information about the bittorrent mailing list