[bittorrent] Devon Allman's Honeytribe Newport Music Hall Columbus, Ohio 3/14/2009

Automated Mailer noreply-bt.e at etree.org
Mon Mar 16 10:27:04 MDT 2009


Band:           Other
Torrent Name:   Devon Allman's Honeytribe Newport Music Hall Columbus, Ohio 3/14/2009 
Uploaded by:    zmanatl
DB Link:        
Details:        http://bt.etree.org/details.php?id=523455

Contact the seeder at http://db.etree.org/zmanatl

If the link to this show does not work, it was probably removed for
being non-trade-friendly.

Description / text file:
-------------------------
Devon Allman's Honeytribe
Newport Music Hall
Columbus, Ohio
3/14/2009

Source: Schoeps CCM4V'S(din)>Lunatec V2>Benchmark AD2K>
Sound Devices 722 (24/48)
Location: FOB/DRFC/KFC/ZFC/AARP 27' From Stage, 7' High
DSP: Sound Devices 722>Sound Forge 9.0>CD Wave>flac(16)
Recorded By: Z-Man
Seeded By: Z-Man
 
Disc I

01  ? >
02 Checkin' On My Baby 
03 Take Me To The Bridge
04 You Are My Life 
05 Midnight Rider
06 Devon Has No Mercy In Him 
07 Salvation
08 ?
09 No Woman, No Cry
10 Why Do You Want To Bring Me Down (With Bass and Drum Solo)
11 Band Introductions
12 ? (With Jessica Jam)

Flac fingerprint 

honeytribe2009-03-14d01t01.flac:7016ad28c035823bde800d6d97b26cb1
honeytribe2009-03-14d01t02.flac:8470cb69cc516773a64819b4882bf9df
honeytribe2009-03-14d01t03.flac:0941b8a835d0496a37ca6aea5744ec3a
honeytribe2009-03-14d01t04.flac:6e525ae826483fcf4d5b4cc047147108
honeytribe2009-03-14d01t05.flac:71f3bed9e3429a5f76dd191c9b6e675b
honeytribe2009-03-14d01t06.flac:bc094e075b13fc9571c62d708d7da075
honeytribe2009-03-14d01t07.flac:5e2a11ba37b0f33ce9130bfc5628fe4b
honeytribe2009-03-14d01t08.flac:108afe0455b671f9e8de5c42d65bc28f
honeytribe2009-03-14d01t09.flac:eae8bd60f14ed6020bfa45e2541fcb5f
honeytribe2009-03-14d01t10.flac:d8833becc9dad95b5616bd726d4fbee7
honeytribe2009-03-14d01t11.flac:1b2a505abed1c2ad3b7d41177d648322
honeytribe2009-03-14d01t12.flac:dfd2bef3d5cf32374fa5f79c806253e2

shntool 

    length     expanded size    cdr  WAVE problems  fmt   ratio  filename
     4:30.68       47787980 B   ---   --   ---xx   flac  0.5491  honeytribe2009-03-14d01t01.flac
     4:18.27       45574748 B   ---   --   ---xx   flac  0.5366  honeytribe2009-03-14d01t02.flac
     4:12.02       44457548 B   ---   --   ---xx   flac  0.5882  honeytribe2009-03-14d01t03.flac
     8:56.11       94576316 B   ---   --   ---xx   flac  0.5438  honeytribe2009-03-14d01t04.flac
     6:54.24       73086092 B   ---   --   ---xx   flac  0.5547  honeytribe2009-03-14d01t05.flac
     4:18.33       45588860 B   ---   --   ---xx   flac  0.5509  honeytribe2009-03-14d01t06.flac
     4:17.55       45464204 B   ---   --   ---xx   flac  0.5161  honeytribe2009-03-14d01t07.flac
     4:23.58       46529660 B   ---   --   ---xx   flac  0.5616  honeytribe2009-03-14d01t08.flac
     8:26.65       89411324 B   ---   --   ---xx   flac  0.5155  honeytribe2009-03-14d01t09.flac
     7:05.36       75054716 B   ---   --   ---xx   flac  0.5709  honeytribe2009-03-14d01t10.flac
     0:32.70        5809484 B   ---   --   ---xx   flac  0.4733  honeytribe2009-03-14d01t11.flac
     5:00.14       52952972 B   ---   --   ---xx   flac  0.5523  honeytribe2009-03-14d01t12.flac
    62:57.13      666293904 B                            0.5470  (12 files)





More information about the bittorrent mailing list