[bittorrent] Ekoostik Hookah Newport Music Hall Columbus, Ohio 3/14/2009

Automated Mailer noreply-bt.e at etree.org
Sun Mar 15 04:07:46 MDT 2009


Band:           Ekoostik Hookah
Torrent Name:   Ekoostik Hookah Newport Music Hall Columbus, Ohio 3/14/2009
Uploaded by:    zmanatl
DB Link:        
Details:        http://bt.etree.org/details.php?id=523423

Contact the seeder at http://db.etree.org/zmanatl

If the link to this show does not work, it was probably removed for
being non-trade-friendly.

Description / text file:
-------------------------
Ekoostik Hookah
Newport Music Hall
Columbus, Ohio
3/14/2009

Source: Schoeps CCM4V'S(din)>Lunatec V2>Benchmark AD2K>
Sound Devices 722 (24/48)
Location: FOB/DRFC/KFC/ZFC/AARP 27' From Stage, 7' High
DSP: Sound Devices 722>Sound Forge 9.0>CD Wave>flac(16)
Recorded By: Z-Man
Seeded By: Z-Man
 
Disc I 1st Set

01 Sun Goes Down
02 The Devil And Me
03 Faces In The Crowd >
04 Heavens To Mergatroid
05 Make It To The Mountain >
06 Find Out
07 Bluebird >
08 City Of New Orleans

Disc II 1st Set Con't

01 Serpentine
02 Right Back Out In The Street
03 John Banter - Hookahville01 Sheep Dog
04 Sheep Dog
05 Arctic Song
2nd Set:
06 Freedom Flying >
07 Looper's Din >
08 Water Bear >
09 Black Mamba > 
10 Water Bear 

Disc III 2nd Set Con't

01 Train In The Distant
02 Way Of The World
03 Reciprocity
Encore:
04 Dave Banter - Hookahville
05 Revival
 
Flac fingerprint 

ekoostikhookah2009-03-14d01t01.flac:23c8a7cf76de1183e27aa252627fa63d
ekoostikhookah2009-03-14d01t02.flac:be92de3ff992f6bae70f181d1d219b19
ekoostikhookah2009-03-14d01t03.flac:c0cc3dc5bd3a9943c6cbe21d5337e5a7
ekoostikhookah2009-03-14d01t04.flac:1947d70bd32945fc4c8bebae38cfb227
ekoostikhookah2009-03-14d01t05.flac:ee1d2906dfb6882b0e8ffe27fa8d1974
ekoostikhookah2009-03-14d01t06.flac:a01a9aa39f5acc755c8443df2ae955ed
ekoostikhookah2009-03-14d01t07.flac:1b1533dd06c8987a792c942e56d67d3c
ekoostikhookah2009-03-14d01t08.flac:74d332939a6fe3a05ab2d96b9da04b2e
ekoostikhookah2009-03-14d02t01.flac:c3cc53a67e782772658809dd95012666
ekoostikhookah2009-03-14d02t02.flac:cb8e331c5ca878d8bc87348ad7b0b33d
ekoostikhookah2009-03-14d02t03.flac:11989300018a8b91bb8a59d9003f40e9
ekoostikhookah2009-03-14d02t04.flac:5dfcb7bc37c5f503883ad45e5c327759
ekoostikhookah2009-03-14d02t05.flac:d4b4ce87c4778d3511735a9bb7ccc21e
ekoostikhookah2009-03-14d02t06.flac:a8e8eae98d70322c5e7962164cb41ac5
ekoostikhookah2009-03-14d02t07.flac:54794754f5c23da11e7eb1a5ec30c23f
ekoostikhookah2009-03-14d02t08.flac:82961708eb05bb6df4fd6cfd5351cef8
ekoostikhookah2009-03-14d02t09.flac:09a30c3a4d93842d4413f77d04de812c
ekoostikhookah2009-03-14d02t10.flac:cfc93b5b7a812a4cfea1d61b48fb77c3
ekoostikhookah2009-03-14d03t01.flac:6b68278162495fc89baf7bd56ddd978f
ekoostikhookah2009-03-14d03t02.flac:684f77bbe92c1a4926f97b644a58af1b
ekoostikhookah2009-03-14d03t03.flac:fcd17147e6864e79870ffe40a30ece2d
ekoostikhookah2009-03-14d03t04.flac:55e5536ed1be498f2c2c4e43c103406a
ekoostikhookah2009-03-14d03t05.flac:f78a870456d861a9890f72433d2c10cf

shntool 

    length     expanded size    cdr  WAVE problems  fmt   ratio  filename
    10:21.70      109709084 B   ---   --   ---xx   flac  0.5738  ekoostikhookah2009-03-14d01t01.flac
     7:52.31       83333756 B   ---   --   ---xx   flac  0.5227  ekoostikhookah2009-03-14d01t02.flac
     7:00.06       74102156 B   ---   --   ---xx   flac  0.4788  ekoostikhookah2009-03-14d01t03.flac
     6:20.52       67154348 B   ---   --   ---xx   flac  0.4931  ekoostikhookah2009-03-14d01t04.flac
     4:13.48       44742140 B   ---   --   ---xx   flac  0.4891  ekoostikhookah2009-03-14d01t05.flac
     9:41.04      102497852 B   ---   --   ---xx   flac  0.4689  ekoostikhookah2009-03-14d01t06.flac
     6:28.59       68582012 B   ---   --   ---xx   flac  0.4937  ekoostikhookah2009-03-14d01t07.flac
     6:16.62       66472268 B   ---   --   ---xx   flac  0.4425  ekoostikhookah2009-03-14d01t08.flac
    10:21.63      109692620 B   ---   --   ---xx   flac  0.5488  ekoostikhookah2009-03-14d02t01.flac
     5:49.01       61565996 B   ---   --   ---xx   flac  0.5400  ekoostikhookah2009-03-14d02t02.flac
     1:15.20       13277084 B   ---   --   ---xx   flac  0.3814  ekoostikhookah2009-03-14d02t03.flac
     5:49.34       61643612 B   ---   --   ---xx   flac  0.5464  ekoostikhookah2009-03-14d02t04.flac
     8:54.22       94249388 B   ---   --   ---xx   flac  0.5532  ekoostikhookah2009-03-14d02t05.flac
     8:19.57       88157708 B   ---   --   ---xx   flac  0.4761  ekoostikhookah2009-03-14d02t06.flac
     8:39.20       91598684 B   ---   --   ---xx   flac  0.5365  ekoostikhookah2009-03-14d02t07.flac
    11:54.47      126060188 B   ---   --   ---xx   flac  0.4855  ekoostikhookah2009-03-14d02t08.flac
    13:40.40      144742124 B   ---   --   ---xx   flac  0.5415  ekoostikhookah2009-03-14d02t09.flac
     2:31.51       26756396 B   ---   --   ---xx   flac  0.5292  ekoostikhookah2009-03-14d02t10.flac
     7:50.62       83053868 B   ---   --   ---xx   flac  0.4053  ekoostikhookah2009-03-14d03t01.flac
     9:59.21      105713036 B   ---   --   ---xx   flac  0.5375  ekoostikhookah2009-03-14d03t02.flac
    15:02.46      159221036 B   ---   --   ---xx   flac  0.5271  ekoostikhookah2009-03-14d03t03.flac
     1:29.56       15831356 B   ---   --   ---xx   flac  0.3938  ekoostikhookah2009-03-14d03t04.flac
     6:49.09       72168812 B   ---   --   ---xx   flac  0.5210  ekoostikhookah2009-03-14d03t05.flac
   176:42.56     1870325524 B                            0.5110  (23 files)







More information about the bittorrent mailing list