[bittorrent] {DttC091} 1989-03-31, 04-15: Greensboro, Milwaukee [SHNIDs 32349 and 82405]

Automated Mailer noreply-bt.e at etree.org
Sat Mar 14 22:59:31 MDT 2009


Band:           Grateful Dead
Torrent Name:   {DttC091} 1989-03-31, 04-15: Greensboro, Milwaukee [SHNIDs 32349 and 82405] 
Uploaded by:    SteveSw
DB Link:        
Details:        http://bt.etree.org/details.php?id=523416

Contact the seeder at http://db.etree.org/SteveSw

If the link to this show does not work, it was probably removed for
being non-trade-friendly.

Description / text file:
-------------------------
Grateful Dead - March 31, 1989
Greensboro Coliseum - Greensboro, NC

Recording Info:
SBD -> Dat (44.1k)

Transfer Info:
Set 1: Dat -> Sonic Solutions -> CD -> EAC -> FLAC
Set 2: Dat -> SEK'D Prodif Plus -> Samplitude Professional v8.01 -> FLAC
(2 Discs Audio / 2 Discs FLAC)

Transferred and Edited By Charlie Miller and David Gans
charliemiller87 at earthlink.net
January 31, 2006

Notes:
-- Encore can be moved back to end of 2nd set seamlessly.
-- Level changes in Good Lovin' fixed as best as possible.
-- d1t09 patched with SBD->Master Cassette->20-bit Sonic->CD

Set 1:
d1t01 - Hell In A Bucket ->
d1t02 - Sugaree ->
d1t03 - New Minglewood Blues
d1t04 - Peggy-O
d1t05 - Me And My Uncle ->
d1t06 - Big River
d1t07 - Loser
d1t08 - Victim Or The Crime
d1t09 - Standing On The Moon

Set 2:
d2t01 - Tuning
d2t02 - Hey Pocky Way ->
d2t03 - Truckin' ->
d2t04 - Terrapin Station ->
d2t05 - Drums ->
d2t06 - Space ->
d2t07 - I Will Take You Home ->
d2t08 - All Along The Watchtower ->
d2t09 - Morning Dew ->
d2t10 - Good Lovin'
 
Encore:
d1t10 - Crowd/Tuning
d1t11 - Brokedown Palace


SHNTOOL OUTPUT:
    length     expanded size    cdr  WAVE problems  fmt   ratio  filename
     6:11.71       65611436 B   ---   --   ---xx   flac  0.6179  gd89-03-31d1t01.flac
     8:53.13       94051820 B   ---   --   ---xx   flac  0.5895  gd89-03-31d1t02.flac
     7:47.53       82503500 B   ---   --   ---xx   flac  0.6078  gd89-03-31d1t03.flac
     6:35.27       69741548 B   ---   --   ---xx   flac  0.5496  gd89-03-31d1t04.flac
     3:08.47       33273788 B   ---   --   ---xx   flac  0.6274  gd89-03-31d1t05.flac
     5:45.21       60907436 B   ---   --   ---xx   flac  0.6209  gd89-03-31d1t06.flac
     7:20.17       77656028 B   ---   --   ---xx   flac  0.5764  gd89-03-31d1t07.flac
     6:29.25       68678444 B   ---   --   ---xx   flac  0.5779  gd89-03-31d1t08.flac
     7:20.41       77712476 B   ---   --   ---xx   flac  0.5714  gd89-03-31d1t09.flac
     1:46.66       18853676 B   ---   --   ---xx   flac  0.4630  gd89-03-31d1t10.flac
     5:47.50       61328444 B   ---   --   ---xx   flac  0.5506  gd89-03-31d1t11.flac
     1:20.74       14286092 B   ---   --   ---xx   flac  0.4151  gd89-03-31d2t01.flac
     5:57.60       63115964 B   ---   --   ---xx   flac  0.6000  gd89-03-31d2t02.flac
     6:51.26       72561596 B   ---   --   ---xx   flac  0.6068  gd89-03-31d2t03.flac
    16:44.54      177232652 B   ---   --   ---xx   flac  0.5470  gd89-03-31d2t04.flac
     8:54.64       94348172 B   ---   --   ---xx   flac  0.4797  gd89-03-31d2t05.flac
     8:57.36       94811516 B   ---   --   ---xx   flac  0.4066  gd89-03-31d2t06.flac
     3:52.19       40969532 B   ---   --   ---xx   flac  0.4718  gd89-03-31d2t07.flac
     5:13.25       55272044 B   ---   --   ---xx   flac  0.6227  gd89-03-31d2t08.flac
    11:44.27      124249148 B   ---   --   ---xx   flac  0.5739  gd89-03-31d2t09.flac
     7:04.44       74897132 B   ---   --   ---xx   flac  0.5911  gd89-03-31d2t10.flac
   143:48.35     1522062444 B                            0.5600  (21 files)

==========

Grateful Dead - April 15, 1989
The Mecca - Milwaukee, WI

Recording Info:
SBD -> Cassette Master (TDK MA-XG90)

Transfer Info:
Cassette Master (Tascam 122mkII) -> Apogee MiniMe (24bit/48k) ->
Samplitude Professional v8.01 -> FLAC/16
(2 Discs Audio / 2 Discs FLAC)

All Transfers and Mastering By Charlie Miller
charliemiller87 at earthlink.net
December 17, 2006

Patch Info:
(2) Nakamichi 300/CP4 + (2) Sennheiser 441 -> Cassette Master -> CD
Space (2:55 - 3:03)

Notes:
-- Encore moved to end of 1st set to fit show onto 2 discs
-- 2nd Set and Encore can be re-joined seamlessly
-- Thanks to Paul Scotton and Joani Walker for the tapes
-- Patch source recorded By Steve Cherson

Set 1:
d1t01 - Tuning
d1t02 - Mississippi Half-Step Uptown Toodeloo ->
d1t03 - Feel Like A Stranger ->
d1t04 - Franklin's Tower ->
d1t05 - Walkin' Blues
d1t06 - When Push Comes To Shove
d1t07 - Queen Jane Approximately
d1t08 - Blow Away ->
d1t09 - The Promised Land

Set 2:
d2t01 - Tuning
d2t02 - China Cat Sunflower ->
d2t03 - I Know You Rider
d2t04 - Playing In The Band ->
d2t05 - Terrapin Station ->
d2t06 - Drums ->
d2t07 - Space ->
d2t08 - I Will Take You Home ->
d2t09 - All Along The Watchtower ->
d2t10 - Morning Dew

Encore:
d1t10 - Crowd/Tuning
d1t11 -	One More Saturday Night

    length     expanded size    cdr  WAVE problems  fmt   ratio  filename
     0:48.12        8495468 B   ---   --   ---xx   flac  0.5049  gd89-04-15d1t01.flac
     7:01.24       74320892 B   ---   --   ---xx   flac  0.6143  gd89-04-15d1t02.flac
     7:49.47       82842188 B   ---   --   ---xx   flac  0.6434  gd89-04-15d1t03.flac
     8:43.54       92384252 B   ---   --   ---xx   flac  0.6350  gd89-04-15d1t04.flac
     7:48.31       82628156 B   ---   --   ---xx   flac  0.5917  gd89-04-15d1t05.flac
     5:39.49       59914892 B   ---   --   ---xx   flac  0.6136  gd89-04-15d1t06.flac
     8:29.01       89789996 B   ---   --   ---xx   flac  0.5947  gd89-04-15d1t07.flac
     9:45.11      103219916 B   ---   --   ---xx   flac  0.6086  gd89-04-15d1t08.flac
     4:53.38       51774620 B   ---   --   ---xx   flac  0.6209  gd89-04-15d1t09.flac
     3:16.67       34732028 B   ---   --   ---xx   flac  0.5052  gd89-04-15d1t10.flac
     5:12.62       55182668 B   ---   --   ---xx   flac  0.6326  gd89-04-15d1t11.flac
     1:12.45       12806684 B   ---   --   ---xx   flac  0.5124  gd89-04-15d2t01.flac
     5:04.70       53790284 B   ---   --   ---xx   flac  0.6249  gd89-04-15d2t02.flac
     6:13.31       65870156 B   ---   --   ---xx   flac  0.6349  gd89-04-15d2t03.flac
     8:07.61       86050316 B   ---   --   ---xx   flac  0.6207  gd89-04-15d2t04.flac
    13:04.74      138471692 B   ---   --   ---xx   flac  0.5967  gd89-04-15d2t05.flac
    10:18.61      109158716 B   ---   --   ---xx   flac  0.5528  gd89-04-15d2t06.flac
     8:30.31       90036956 B   ---   --   ---xx   flac  0.5036  gd89-04-15d2t07.flac
     4:06.41       43490876 B   ---   --   ---xx   flac  0.5048  gd89-04-15d2t08.flac
     6:26.42       68189228 B   ---   --   ---xx   flac  0.6174  gd89-04-15d2t09.flac
    13:08.74      139177292 B   ---   --   ---xx   flac  0.5774  gd89-04-15d2t10.flac
   145:43.26     1542327276 B                            0.5942  (21 files)




More information about the bittorrent mailing list