[bittorrent] Spikedrivers Skully's Columbus, Ohio 3/13/2009

Automated Mailer noreply-bt.e at etree.org
Sat Mar 14 11:48:10 MDT 2009


Band:           Other
Torrent Name:   Spikedrivers Skully's Columbus, Ohio 3/13/2009
Uploaded by:    zmanatl
DB Link:        
Details:        http://bt.etree.org/details.php?id=523401

Contact the seeder at http://db.etree.org/zmanatl

If the link to this show does not work, it was probably removed for
being non-trade-friendly.

Description / text file:
-------------------------
The Spikedrivers
Skully's
Columbus, Ohio
3/13/2009

Source: Schoeps CCM4V'S(din)>Lunatec V2>Benchmark AD2K>
Sound Devices 722 (24/48)
Location: FOB/DRFC/KFC/ZFC/AARP 15' From Stage, 7' High
DSP: Sound Devices 722>Sound Forge 9.0>CD Wave>flac(16)
Recorded By: Z-Man
Seeded By: Z-Man
 
Disc I 3rd Set

01 Crowd
02 If You Gotta Go, Go Now >
03 Lay Me Down
04 America Hit Below The Bible Belt
05 Knife Twister
06 Ain't That Bad
07 Copperhead
08 I'm A Woman
09 *Built For Comfort
10 Businessman Of Chance
11 Band Introductions

* With Danny of Rodeo Champagne On Harmonica

Show Notes:

I did not get to Skully's until about 12:30, as The Spikedrivers just ended their 2nd Set. I was recording the Dickey Betts and Great Southern show at Promo West until 12:05.

Flac fingerprint 

spikedrivers2009-03-13d01t01.flac:5abde42bc54e1b28e573ce5655287109
spikedrivers2009-03-13d01t02.flac:e750c0bc1e3db70e17acc737b52714ed
spikedrivers2009-03-13d01t03.flac:501c3e99ee42c57e57288c74de66d41c
spikedrivers2009-03-13d01t04.flac:e2fa77195ad77c569c401edf3526aeef
spikedrivers2009-03-13d01t05.flac:9f4c39ca160d862fec9a542c3d489440
spikedrivers2009-03-13d01t06.flac:87be59de6c9bb0e143ba87127d32193c
spikedrivers2009-03-13d01t07.flac:0c5585dd0ab52282337b0306599e3ec3
spikedrivers2009-03-13d01t08.flac:8bfdf3f195e26cd477714c0781f6cc31
spikedrivers2009-03-13d01t09.flac:e245fb0905d69fdc7721d606d9c806db
spikedrivers2009-03-13d01t10.flac:3149728ee83f6e86becbc228e6027cfe
spikedrivers2009-03-13d01t11.flac:54c4dd05b5b3580bff0e6fc3e38c6318

shntool 

    length     expanded size    cdr  WAVE problems  fmt   ratio  filename
     0:26.21        4635836 B   ---   --   ---xx   flac  0.3397  spikedrivers2009-03-13d01t01.flac
     5:56.49       62913692 B   ---   --   ---xx   flac  0.6393  spikedrivers2009-03-13d01t02.flac
     4:51.19       51377132 B   ---   --   ---xx   flac  0.5134  spikedrivers2009-03-13d01t03.flac
     5:16.04       55751852 B   ---   --   ---xx   flac  0.4742  spikedrivers2009-03-13d01t04.flac
     5:03.07       53465708 B   ---   --   ---xx   flac  0.5432  spikedrivers2009-03-13d01t05.flac
     6:25.32       67989308 B   ---   --   ---xx   flac  0.5337  spikedrivers2009-03-13d01t06.flac
     6:14.62       66119468 B   ---   --   ---xx   flac  0.5880  spikedrivers2009-03-13d01t07.flac
    10:45.53      113902700 B   ---   --   ---xx   flac  0.4940  spikedrivers2009-03-13d01t08.flac
    11:45.68      124521980 B   ---   --   ---xx   flac  0.4941  spikedrivers2009-03-13d01t09.flac
     7:20.44       77719532 B   ---   --   ---xx   flac  0.5371  spikedrivers2009-03-13d01t10.flac
     1:52.08       19775660 B   ---   --   ---xx   flac  0.4413  spikedrivers2009-03-13d01t11.flac
    65:57.67      698172868 B                            0.5258  (11 files)







More information about the bittorrent mailing list