[bittorrent] Beoga The Ark Ann Arbor, Michigan 3/10/2009

Automated Mailer noreply-bt.e at etree.org
Wed Mar 11 08:33:47 MDT 2009


Band:           Other
Torrent Name:   Beoga The Ark Ann Arbor, Michigan 3/10/2009
Uploaded by:    zmanatl
DB Link:        
Details:        http://bt.etree.org/details.php?id=523330

Contact the seeder at http://db.etree.org/zmanatl

If the link to this show does not work, it was probably removed for
being non-trade-friendly.

Description / text file:
-------------------------
Beoga
The Ark 
Ann Arbor, Michigan
3/10/2009

Source: Schoeps CCM4V'S(din)>Lunatec V2>Benchmark AD2K>
Sound Devices 722 (24/48)
Location: FOB/DFC/KFC/ZFC/AARP 3rd Row, 7' From Stage, 4 1/2' High
DSP: Sound Devices 722>Sound Forge 9.0>CD Wave>flac(16)
Recorded By: Z-Man
Seeded By: Z-Man
 
Disc I 1st Set

01 Introduction
02 Jazzy Wilber
03 ? >
04 ?
05 Mary Danced With Soldiers
06 ?
07 Banter
08 Soggies
00 Banter - About The Incident
10 The Incident
11 On The way
12 The Fly Fishing Set
13 Mischief
14 The Prelude Polkas Part I >
15 The Prelude Polkas Part II >
16 The Prelude Polkas Part III

Disc II 2nd Set

01 ? >
02 ?
03 Banter on Walmart
04 Factory Girl
05 The Solid Man
06 ? 
07 Banter
08 Lumped Part I >
09 Lumped Part II
10 Please Don't Talk About Me When I'm Gone
11 Percussion Solo
12 ?

Beoga:

Niamh Dunne - Fiddle and Vocals
Damian McKee - Button Accordian
Eamon Murray - Bodhran and Vocals
Sean O'Graham - Button Accordian, Acoustic Guitar, and Vocals
Liam Bradley - Piano and Vocals

Flac fingerprint 

beoga2009-03-10d01t01.flac:af2866e3c4ace4e91873a53b0749cdfb
beoga2009-03-10d01t02.flac:66ee20d51f1eb3ad393754c8ba30fa3a
beoga2009-03-10d01t03.flac:5bc1873fdc20dc17f0dd0877ce22b85d
beoga2009-03-10d01t04.flac:c4170aee48c857e194089e1ba8fb8377
beoga2009-03-10d01t05.flac:a44b2d4dd3736f7cfb659e5dfda19428
beoga2009-03-10d01t06.flac:5a25aa6386490e7dbcddba480c01800f
beoga2009-03-10d01t07.flac:4f076207390673041c80fe900e37787a
beoga2009-03-10d01t08.flac:f3e93e81015f616fc0a9ecfa761fcaf5
beoga2009-03-10d01t09.flac:9402e77589bf9f93d83eb316338303dd
beoga2009-03-10d01t10.flac:16685dddcf7581ad5bca2c5d9943daf7
beoga2009-03-10d01t11.flac:c0d603f21519552ebb8d05a1baa7ad53
beoga2009-03-10d01t12.flac:239efe9436bdd5959718a7043d462737
beoga2009-03-10d01t13.flac:9d231a279a4458e5f08fab0180985f58
beoga2009-03-10d01t14.flac:c782f1a9aec55e87fe5eb7ca9230783c
beoga2009-03-10d01t15.flac:d1c08b077f2fd739881bf8a07aadcf8e
beoga2009-03-10d01t16.flac:d943ec4761db610bdc1609bf2f9cf3db
beoga2009-03-10d02t01.flac:aabe37cc7144dc321e1bf14208975394
beoga2009-03-10d02t02.flac:b610a4b2af7ae22fc5b11c937d0cc195
beoga2009-03-10d02t03.flac:d191a8fb2ac460633e85d1dbb1fc650c
beoga2009-03-10d02t04.flac:2a679b219f0574de3b36f0bb15f0429b
beoga2009-03-10d02t05.flac:1dbcd84d4c9d3ad5d1904b631b9a12a4
beoga2009-03-10d02t06.flac:77b1c64212eff39126cf54dd009d248f
beoga2009-03-10d02t07.flac:ed532bb917047cc6cb344726644cc923
beoga2009-03-10d02t08.flac:249cccc9ea36775dbe94b090bb0edec5
beoga2009-03-10d02t09.flac:37e715a836b124014e234557534cd3f9
beoga2009-03-10d02t10.flac:099a66a95be1a0b968ad769b75e60046
beoga2009-03-10d02t11.flac:e893fbfd53ede7c99ab0b475b9856464
beoga2009-03-10d02t12.flac:c18d48a16e97d2bd5d55177052c0e8ef

shntool 

    length     expanded size    cdr  WAVE problems  fmt   ratio  filename
     1:07.02       11823548 B   ---   --   ---xx   flac  0.3931  beoga2009-03-10d01t01.flac
     3:39.01       38633996 B   ---   --   ---xx   flac  0.4480  beoga2009-03-10d01t02.flac
     1:26.65       15323324 B   ---   --   ---xx   flac  0.4040  beoga2009-03-10d01t03.flac
     2:44.14       28962572 B   ---   --   ---xx   flac  0.5018  beoga2009-03-10d01t04.flac
     4:55.41       52134476 B   ---   --   ---xx   flac  0.3606  beoga2009-03-10d01t05.flac
     3:29.17       36907628 B   ---   --   ---xx   flac  0.5026  beoga2009-03-10d01t06.flac
     1:30.38       15965420 B   ---   --   ---xx   flac  0.3324  beoga2009-03-10d01t07.flac
     4:29.04       47461052 B   ---   --   ---xx   flac  0.4056  beoga2009-03-10d01t08.flac
     1:44.08       18364460 B   ---   --   ---xx   flac  0.3126  beoga2009-03-10d01t09.flac
     4:39.62       49361468 B   ---   --   ---xx   flac  0.4707  beoga2009-03-10d01t10.flac
     4:01.11       42538316 B   ---   --   ---xx   flac  0.4419  beoga2009-03-10d01t11.flac
     3:56.12       41658668 B   ---   --   ---xx   flac  0.4782  beoga2009-03-10d01t12.flac
     4:10.26       44161196 B   ---   --   ---xx   flac  0.4406  beoga2009-03-10d01t13.flac
     1:17.65       13735724 B   ---   --   ---xx   flac  0.4048  beoga2009-03-10d01t14.flac
     1:26.73       15342140 B   ---   --   ---xx   flac  0.4952  beoga2009-03-10d01t15.flac
     3:19.33       35181260 B   ---   --   ---xx   flac  0.4873  beoga2009-03-10d01t16.flac
     3:42.06       39174956 B   ---   --   ---xx   flac  0.3261  beoga2009-03-10d02t01.flac
     4:09.30       43994204 B   ---   --   ---xx   flac  0.4538  beoga2009-03-10d02t02.flac
     1:06.46       11750636 B   ---   --   ---xx   flac  0.3321  beoga2009-03-10d02t03.flac
     4:02.65       42841724 B   ---   --   ---xx   flac  0.3971  beoga2009-03-10d02t04.flac
     3:45.49       39805292 B   ---   --   ---xx   flac  0.3255  beoga2009-03-10d02t05.flac
     2:48.30       29705804 B   ---   --   ---xx   flac  0.4423  beoga2009-03-10d02t06.flac
     1:25.55       15123404 B   ---   --   ---xx   flac  0.3255  beoga2009-03-10d02t07.flac
     2:32.17       26852828 B   ---   --   ---xx   flac  0.4221  beoga2009-03-10d02t08.flac
     1:16.42       13505228 B   ---   --   ---xx   flac  0.5147  beoga2009-03-10d02t09.flac
     2:59.70       31740284 B   ---   --   ---xx   flac  0.4539  beoga2009-03-10d02t10.flac
     4:02.36       42773516 B   ---   --   ---xx   flac  0.3150  beoga2009-03-10d02t11.flac
     5:46.09       61055612 B   ---   --   ---xx   flac  0.5213  beoga2009-03-10d02t12.flac
    85:35.27      905878736 B                            0.4247  (28 files)








More information about the bittorrent mailing list