[bittorrent] wsp1997-06-28.mk5.unknown.88718.flac16 [wsp1997 project]

Automated Mailer noreply-bt.e at etree.org
Wed Mar 11 07:37:32 MDT 2009


Band:           Widespread Panic
Torrent Name:   wsp1997-06-28.mk5.unknown.88718.flac16 [wsp1997 project]
Uploaded by:    mikepanic
DB Link:        
Details:        http://bt.etree.org/details.php?id=523328

Contact the seeder at http://db.etree.org/mikepanic

If the link to this show does not work, it was probably removed for
being non-trade-friendly.

Description / text file:
-------------------------
Widespread Panic
June 28, 1997
Wolf Mountain Arena
Park City, UT

Source:  (fob) Schoeps mk5 > custom pre-amp > Sony SBM-1 > DAT @ 44.1 KHz
Taped by:  Unknown  (DAT clone provided courtesy of Haney Jones)

Transfer:  DAT (c) > Sony 59ES > Audiophile 24/96 > Wavelab 5.0 > CDWave > FLAC v.1.7.1 > .flac (6)
Transfer by:  BobbyHurley


Disc 1 / Set I

01)  A of D
02)  She Caught the Katy
03)  Let's Get Down to Business
04)  Stop-Go >
05)  Rebirtha >
06)  Wonderin' 
07)  That Thang
08)  Hatfield
09)  Love Tractor
-= Set II =-
10)  Flat Foot Flewzy
11)  You Got Yours

Disc 2 / Set II cont.

01)  Tuning
02)  Weight of the World
03)  Pickin' Up the Pieces
04)  Low Rider >
05)  Driving Song >
06)  Ride Me High >
07)  Drums >
08)  Driving Song >
09)  Fishwater
-= Encore =-
10)  Low Spark of High Heeled Boys

-----------------------------

SHNtool Output
    length     expanded size   cdr  WAVE problems filename
     3:13.23       34099340    ---   --   -----   wsp1997-06-28d1t01.wav
     3:42.58       39297260    ---   --   -----   wsp1997-06-28d1t02.wav
     4:38.45       49145084    ---   --   -----   wsp1997-06-28d1t03.wav
     8:37.26       91259996    ---   --   -----   wsp1997-06-28d1t04.wav
     8:33.51       90613196    ---   --   -----   wsp1997-06-28d1t05.wav
     4:08.50       43864844    ---   --   -----   wsp1997-06-28d1t06.wav
     4:52.07       51525308    ---   --   -----   wsp1997-06-28d1t07.wav
     9:30.02      100552748    ---   --   -----   wsp1997-06-28d1t08.wav
     5:42.42       60427628    ---   --   -----   wsp1997-06-28d1t09.wav
    11:37.20      122997884    ---   --   -----   wsp1997-06-28d1t10.wav
     6:21.02       67213148    ---   --   -----   wsp1997-06-28d1t11.wav
     0:26.21        4635836    ---   --   -----   wsp1997-06-28d2t01.wav
     5:13.37       55300268    ---   --   -----   wsp1997-06-28d2t02.wav
     5:55.27       62685548    ---   --   -----   wsp1997-06-28d2t03.wav
    10:59.15      116282924    ---   --   -----   wsp1997-06-28d2t04.wav
     4:06.53       43519100    ---   --   -----   wsp1997-06-28d2t05.wav
    10:54.12      115393868    ---   --   -----   wsp1997-06-28d2t06.wav
    10:41.51      113192396    ---   --   -----   wsp1997-06-28d2t07.wav
     2:25.74       25752092    ---   --   -----   wsp1997-06-28d2t08.wav
     9:26.30       99913004    ---   --   -----   wsp1997-06-28d2t09.wav
    11:13.64      118867772    ---   --   -----   wsp1997-06-28d2t10.wav
   142:20.35        1436.75 MB                    (totals for 21 files, 1.0000 overall compression ratio)
       
------------------------------





More information about the bittorrent mailing list