[bittorrent] gd92-06-28.dmtx.hansokolow.97810.flac16 - Deer Creek - Noblesville, IN

Automated Mailer noreply-bt.e at etree.org
Tue Mar 10 15:00:53 MDT 2009


Band:           Grateful Dead
Torrent Name:   gd92-06-28.dmtx.hansokolow.97810.flac16 - Deer Creek - Noblesville, IN
Uploaded by:    hseamons
DB Link:        http://db.etree.org/shn/97810
Details:        http://bt.etree.org/details.php?id=523298

Contact the seeder at http://db.etree.org/hseamons

If the link to this show does not work, it was probably removed for
being non-trade-friendly.

Description / text file:
-------------------------
Grateful Dead
Sunday, June 28th, 1992
Deer Creek Music Center
Noblesville, IN  

        cd1  -  set 1
 1) (crowd/tuning)
 2)  Help On The Way->
 3)  Slipknot!->
 4)  Franklin's Tower->
 5)  Wang Dang Doodle
 6)  Just Like Tom Thumb's Blues
 7)  To Lay Me Down
 8)  El Paso
 9)  New Speedway Boogie->
10)  Smokestack Lightnin'

        plus encore:
11) (crowd/tuning)
12)    e:  Casey Jones 

        cd2  -  set 2
 1)  China Cat Sunflower->
 2)  I Know You Rider
 3)  Estimated Prophet->
 4)  Way To Go Home->
 5)  Drums->
 6)  Space->
 7)  The Last Time->
 8)  China Doll->
 9)  Around And Around

-----------------------------------

This is a matrix, done my hansokolow in ProTools, of the following digital sources:

DSBD: shnid=32550
Recording Info:
SBD -> Dat -> CD

Transfer Info:
CD -> EAC -> Samplitude Professional v8.01 -> FLAC
(2 Discs Audio / 2 Discs FLAC)

Transferred and Edited By Charlie Miller
charliemiller87 at earthlink.net
February 27, 2006

Notes:
-- Thanks to Paul Scotton for the audio discs
-- Diginoise in Wang Dang Doodle
-- This copy has 8 minutes of tuning missing from shnid=28395
-----------------------------------
AUD: shnid=90152
AUD: Schoeps CMC3/MK4 (ORTF) > unknown mic power and lead dat deck > 
Coax SPDIF > Casio DA-7 > Sony DDS-Dat tape. Mics on seven foot stand, 
set up dead center, front edge of grass, just behind last seating row. 

Transfer: MAD > Sony TCD-D10P > Audiophile 2496 SPDIF-In > Soundforge 
(at 48kHz) > CD-Wave > TLH > FLAC. Taped and transferred by Andrew F. 

Notes: 
- Cable problem caused signal losses, patches from ShnID-550. 
- Patch in Franklin's 7:46 > 8:24, and Wang Dang Doodle 0:28 > 0:33. 
- Subsecond glitch at 1:07 of China Cat, repaired with Soundforge. 
- R8Brain v1.9 used to convert the patches from ShnID-550 to 48kHz. 
- Soundforge used to make fades and add the patches.
- TLH used for FLAC compression and making checksums. 
-----------------------------------

hansokolow's Notes:  There were two brief moments of digifuzz in Wang Dang Doodle on the SBD, so they are cut out, at 4:11 and 4:22.  Other slight adjustments were made to match the sources together, but mostly they lined up perfectly.

-Tano (hansokolow at gmail.com)


    length     expanded size    cdr  WAVE problems  fmt   ratio  filename
     2:00.55       21297404 B   ---   --   ---xx  gd92-06-28d1t01.flac
     4:04.29       43109852 B   ---   --   ---xx  gd92-06-28d1t02.flac
     5:05.43       53903180 B   ---   --   ---xx  gd92-06-28d1t03.flac
     9:33.31      101150156 B   ---   --   ---xx  gd92-06-28d1t04.flac
     8:39.11       91577516 B   ---   --   ---xx  gd92-06-28d1t05.flac
     7:12.47       76315388 B   ---   --   ---xx  gd92-06-28d1t06.flac
     9:05.28       96203900 B   ---   --   ---xx  gd92-06-28d1t07.flac
     5:53.16       62306876 B   ---   --   ---xx  gd92-06-28d1t08.flac
     6:50.24       72380492 B   ---   --   ---xx  gd92-06-28d1t09.flac
     5:12.13       55067420 B   ---   --   ---xx  gd92-06-28d1t10.flac
     1:50.02       19408748 B   ---   --   ---xx  gd92-06-28d1t11.flac
     5:37.16       59484476 B   ---   --   ---xx  gd92-06-28d1t12.flac
     2:07.73       22574540 B   ---   --   ---xx  gd92-06-28d2t01.flac
     6:02.01       63859196 B   ---   --   ---xx  gd92-06-28d2t02.flac
     4:44.72       50266988 B   ---   --   ---xx  gd92-06-28d2t03.flac
    11:06.67      117640028 B   ---   --   ---xx  gd92-06-28d2t04.flac
     5:59.49       63442892 B   ---   --   ---xx  gd92-06-28d2t05.flac
    17:54.43      189554780 B   ---   --   ---xx  gd92-06-28d2t06.flac
    10:43.44      113528732 B   ---   --   ---xx  gd92-06-28d2t07.flac
     6:15.25       66208844 B   ---   --   ---xx  gd92-06-28d2t08.flac
     6:30.36       68880716 B   ---   --   ---xx  gd92-06-28d2t09.flac
     8:16.16       87532076 B   ---   --   ---xx  gd92-06-28d2t10.flac
   150:45.66     1595694200 B                            0.4974  (22 files)



More information about the bittorrent mailing list