[bittorrent] Jason Isbell & the 400 Unti 3/8/09 The Orange Peel Asheville, NC Matrix

Automated Mailer noreply-bt.e at etree.org
Mon Mar 9 17:38:44 MDT 2009


Band:           Other
Torrent Name:   Jason Isbell & the 400 Unti 3/8/09 The Orange Peel Asheville, NC Matrix
Uploaded by:    datdork
DB Link:        http://db.etree.org/lookup_show.php?shows_key=450576
Details:        http://bt.etree.org/details.php?id=523280

Contact the seeder at http://db.etree.org/datdork

If the link to this show does not work, it was probably removed for
being non-trade-friendly.

Description / text file:
-------------------------
Jason Isbell & the 400 Unit
03/08/2009
The Orange Peel
Asheville, NC

source:       post show matrix
aud source:   Neumann ak40 > lc3 > km100 (din) > Lunatec V3 > Edirol R-44 @ 24/48
location:     directly in front of soundboard DFC 45' from stage
sbd source:   SBD > xlr > Edirol R-44 @ 24/48
transfer:     SDHC card > PC > wavelab 5.01b > cd wave > traders little helper (flac level 8)

all editing (matrix, resampled w/ resampler 192, dither w/ iZotope Ozone 3) done in wavelab 5.01b

*16bit/44.1khz fileset*

recorded and transferred by Gordon Wilson


01. Cigarettes and Wine
02. Try *
03. Outfit
04. Soldiers Get Strange
05. Goddamn Lonely Love
06. Brand New Kind Of Actress
07. Sway
08. Decoration Day
09. Seven-Mile Island
10. Psycho Killer
11. Danko/Manuel
12. Chicago Promenade
13. The Last Song I Will Write
14. Streetlights
15. Never Gonna Change

encore:
16. American Girl **

* w/ No Quarter Jam
** Benji Hughes, Deer Tick & Jason's sound guy/road manager on lead vocals

suggested disc split after track 9

shntool 3.0.4
Copyright (C) 2000-2007 Jason Jordan <shnutils at freeshell.org>

    length     expanded size    cdr  WAVE problems  fmt   ratio  filename
     8:05.45       85659884 B   ---   --   ---xx   flac  0.5310  isbell2009-03-08t01.flac
     8:30.68       90123980 B   ---   --   ---xx   flac  0.5983  isbell2009-03-08t02.flac
     5:59.66       63482876 B   ---   --   ---xx   flac  0.5352  isbell2009-03-08t03.flac
     5:27.51       57802796 B   ---   --   ---xx   flac  0.5628  isbell2009-03-08t04.flac
     8:42.42       92179628 B   ---   --   ---xx   flac  0.5011  isbell2009-03-08t05.flac
     9:12.43       97473980 B   ---   --   ---xx   flac  0.5771  isbell2009-03-08t06.flac
     5:01.53       53221100 B   ---   --   ---xx   flac  0.5678  isbell2009-03-08t07.flac
     8:06.45       85836284 B   ---   --   ---xx   flac  0.5363  isbell2009-03-08t08.flac
     5:39.27       59863148 B   ---   --   ---xx   flac  0.4933  isbell2009-03-08t09.flac
     4:52.55       51638204 B   ---   --   ---xx   flac  0.5787  isbell2009-03-08t10.flac
     8:43.53       92381900 B   ---   --   ---xx   flac  0.5307  isbell2009-03-08t11.flac
     4:19.13       45718220 B   ---   --   ---xx   flac  0.5054  isbell2009-03-08t12.flac
     6:01.70       63845084 B   ---   --   ---xx   flac  0.5478  isbell2009-03-08t13.flac
     4:48.71       50970236 B   ---   --   ---xx   flac  0.5206  isbell2009-03-08t14.flac
    10:46.38      114043820 B   ---   --   ---xx   flac  0.5423  isbell2009-03-08t15.flac
     6:19.68       67015580 B   ---   --   ---xx   flac  0.5870  isbell2009-03-08t16.flac
   110:39.58     1171256720 B                            0.5454  (16 files)






More information about the bittorrent mailing list