[bittorrent] Gov't Mule 2009-02-11 Lawrence KS - Granada Theater AKG 483 24/48

Automated Mailer noreply-bt.e at etree.org
Sun Mar 8 10:33:47 MDT 2009


Band:           Govt Mule
Torrent Name:   Gov't Mule  2009-02-11  Lawrence KS - Granada Theater  AKG 483  24/48
Uploaded by:    bheath
DB Link:        
Details:        http://bt.etree.org/details.php?id=523234

Contact the seeder at http://db.etree.org/bheath

If the link to this show does not work, it was probably removed for
being non-trade-friendly.

Description / text file:
-------------------------
**24-bit file set**


Gov't Mule
02.11.2009
Granada Theater
Lawrence KS

AKG 483s > Hydra Audio Cable > W-Mod UA-5 > PMD 671 24/48
DFC FOB ~35ft from stage  mics 9ft @ 90° 
24/48 wave files > CD Wave > Flac24

Brian Heath  bg.heath at gmail.com

Set 1
01.  Crowd
02.  Brand New Angel
03.  Perfect Shelter
04.  Streamline Woman
05.  Larger Than Life ->
06.  If 6 Was 9 ->
07.  Larger Than Life
08.  Get Out Of My Life Woman
09.  Birth of the Mule
10.  Temporary Saint
11.  Creep
12.  Trampled Under Foot

Set 2
01.  Crowd
02.  Patchwork Quilt
03.  Helter Skelter
04.  Hunger Strike ->
05.  Dear Mr. Fantasy ->
06.  Hunger Strike
07.  Silent Scream ->
08.  Drums ->
09.  Silent Scream ->
10.  Like Flies ->
11.  Mule
12.  Crowd
Encore
13.  Champagne and Reefer ->
14.  Gonna Send You Back To Georgia


 length     expanded size    cdr  WAVE problems  fmt   ratio  filename
     1:03.773      18366764 B   cxx   --   ---xx   flac  0.6734  mule2009-02-11set1trk01.flac
     6:56.413     119927084 B   cxx   --   ---xx   flac  0.7384  mule2009-02-11set1trk02.flac
     4:46.613      82544684 B   cxx   --   ---xx   flac  0.7088  mule2009-02-11set1trk03.flac
     4:31.493      78190124 B   cxx   --   ---xx   flac  0.7445  mule2009-02-11set1trk04.flac
     6:20.680     109635884 B   cxx   --   ---xx   flac  0.7037  mule2009-02-11set1trk05.flac
     6:46.373     117035564 B   cxx   --   ---xx   flac  0.7082  mule2009-02-11set1trk06.flac
     1:35.400      27475244 B   cxx   --   ---xx   flac  0.7300  mule2009-02-11set1trk07.flac
     7:26.467     128582444 B   cxx   --   ---xx   flac  0.6953  mule2009-02-11set1trk08.flac
    10:16.387     177519404 B   cxx   --   ---xx   flac  0.6815  mule2009-02-11set1trk09.flac
     6:38.080     114647084 B   cxx   --   ---xx   flac  0.6993  mule2009-02-11set1trk10.flac
     4:51.987      84092204 B   cxx   --   ---xx   flac  0.6647  mule2009-02-11set1trk11.flac
     7:04.445     122240300 B   cxx   --   ---xx   flac  0.7308  mule2009-02-11set1trk12.flac
     1:23.933      24172844 B   cxx   --   ---xx   flac  0.6043  mule2009-02-11set2trk01.flac
     6:16.893     108545324 B   cxx   --   ---xx   flac  0.6966  mule2009-02-11set2trk02.flac
     4:20.440      75006764 B   cxx   --   ---xx   flac  0.7180  mule2009-02-11set2trk03.flac
     5:43.013      98787884 B   cxx   --   ---xx   flac  0.7149  mule2009-02-11set2trk04.flac
     1:20.507      23185964 B   cxx   --   ---xx   flac  0.7221  mule2009-02-11set2trk05.flac
     2:31.107      43518764 B   cxx   --   ---xx   flac  0.6928  mule2009-02-11set2trk06.flac
     4:43.747      81719084 B   cxx   --   ---xx   flac  0.6791  mule2009-02-11set2trk07.flac
     8:57.893     154913324 B   cxx   --   ---xx   flac  0.7072  mule2009-02-11set2trk08.flac
     6:20.680     109635884 B   cxx   --   ---xx   flac  0.6858  mule2009-02-11set2trk09.flac
     5:56.333     102624044 B   cxx   --   ---xx   flac  0.6886  mule2009-02-11set2trk10.flac
    12:53.773     222846764 B   cxx   --   ---xx   flac  0.7055  mule2009-02-11set2trk11.flac
     2:36.773      45150764 B   cxx   --   ---xx   flac  0.6791  mule2009-02-11set2trk12.flac
     9:19.187     161045804 B   cxx   --   ---xx   flac  0.6769  mule2009-02-11set2trk13.flac
     8:53.971     153783596 B   cxx   --   ---xx   flac  0.7292  mule2009-02-11set2trk14.flac
   149:36.363    2585193592 B                            0.7021  (26 files)



More information about the bittorrent mailing list