[bittorrent] {DttC088} 1988-03-27, 04-01, 04-09: Hampton, East Rutheford, Wooster [SHNIDs 88250, 91160, 91241]

Automated Mailer noreply-bt.e at etree.org
Thu Mar 5 21:39:38 MST 2009


Band:           Grateful Dead
Torrent Name:   {DttC088} 1988-03-27, 04-01, 04-09: Hampton, East Rutheford, Wooster [SHNIDs 88250, 91160, 91241]
Uploaded by:    SteveSw
DB Link:        
Details:        http://bt.etree.org/details.php?id=523172

Contact the seeder at http://db.etree.org/SteveSw

If the link to this show does not work, it was probably removed for
being non-trade-friendly.

Description / text file:
-------------------------
Grateful Dead
3.27.88
Hampton Coliseum
Hampton, Va.

Source: (Fresh Transfer on 11.3.07)
FOB > Schoeps Cmc3 + omni #3 > Dat @ 44.1k

Transfer:
Fostex D5 > Vx Pocket 440 > Toshiba 3480ct > Wavelab 5.0 > Cd Wave > FLAC

Transfer,Editting,Seeded By;
gotfob

Disc I/Set I
01. Iko Iko
02. Little Red Rooster
03. Stagger Lee
04. Ballad of a Thin Man # >
05. Cumberland Blues >
06. Me & My Uncle >
07. To Lay Me Down * >
08. Let It Grow %

Disc II/Set IIa
01. Space
02. So What ^ >
03. Sugar Magnolia >
04. Scarlet Begonias @ > 
05. Fire on the Mountain
06. Estimated Prophet >
07. Eyes of the World >
08. Drums >
09. Space

Disc III/Set IIb
01.  Jam >
02.  GDTRFB > 
03.  I Need A Miracle > 
04.  Dear Mr. Fantasy >
05.  Sunshine Daydream 
-Encore-
06. U.S. Blues

Notes:
# 1st Time Played
* Last Time Played 10.17.83
% Splice on master.At the end of Bobby's 1st verse when he ends "let it grow" @ 1:12.
This is not a dropout from the dat, but apparently came from the master.Not bad at all.
^ Only Time Played
@ Unfortunately there were 3 dropouts removed @ 3:54; 6:03; 7;34


SHNTOOL LEN
    length     expanded size    cdr  WAVE problems  fmt   ratio  filename
     5:08.57       54465308 B   ---   --   ---xx   flac  0.5960  gd1988-03-27d1t01.flac
     9:44.27      103081148 B   ---   --   ---xx   flac  0.5685  gd1988-03-27d1t02.flac
     6:19.50       66973244 B   ---   --   ---xx   flac  0.5592  gd1988-03-27d1t03.flac
     7:03.70       74781884 B   ---   --   ---xx   flac  0.5810  gd1988-03-27d1t04.flac
     5:01.70       53261084 B   ---   --   ---xx   flac  0.5838  gd1988-03-27d1t05.flac
     3:10.30       33586604 B   ---   --   ---xx   flac  0.5998  gd1988-03-27d1t06.flac
     8:02.62       85170668 B   ---   --   ---xx   flac  0.5322  gd1988-03-27d1t07.flac
    11:17.18      119465180 B   ---   --   ---xx   flac  0.5943  gd1988-03-27d1t08.flac
     3:55.70       41618684 B   ---   --   ---xx   flac  0.4663  gd1988-03-27d2t01.flac
     0:58.15       10266524 B   ---   --   ---xx   flac  0.5526  gd1988-03-27d2t02.flac
     5:12.59       55175612 B   ---   --   ---xx   flac  0.6262  gd1988-03-27d2t03.flac
    10:51.56      114968156 B   ---   --   ---xx   flac  0.5986  gd1988-03-27d2t04.flac
    10:37.65      112519724 B   ---   --   ---xx   flac  0.6192  gd1988-03-27d2t05.flac
    10:30.12      111160268 B   ---   --   ---xx   flac  0.6034  gd1988-03-27d2t06.flac
     8:25.34       89162012 B   ---   --   ---xx   flac  0.6293  gd1988-03-27d2t07.flac
     5:31.33       58466060 B   ---   --   ---xx   flac  0.5381  gd1988-03-27d2t08.flac
     6:50.38       72413420 B   ---   --   ---xx   flac  0.4230  gd1988-03-27d2t09.flac
     2:35.55       27471404 B   ---   --   ---xx   flac  0.4338  gd1988-03-27d3t01.flac
     5:51.16       61954076 B   ---   --   ---xx   flac  0.6055  gd1988-03-27d3t02.flac
     3:18.30       34997804 B   ---   --   ---xx   flac  0.6188  gd1988-03-27d3t03.flac
     4:55.43       52139180 B   ---   --   ---xx   flac  0.6074  gd1988-03-27d3t04.flac
     5:27.51       57802796 B   ---   --   ---xx   flac  0.5991  gd1988-03-27d3t05.flac
     5:38.40       59717324 B   ---   --   ---xx   flac  0.6100  gd1988-03-27d3t06.flac
   146:30.26     1550618164 B                            0.5783  (23 files)

==========

Grateful Dead - April 1, 1988
Meadowlands Arena - East Rutherford, NJ

Recording Info:
SBD -> Cassette Master (TDK SA-X90)

Transfer Info:
Cassette Master (Nakamichi DR-1) -> Sound Devices 744T (24bit/48k) ->
Samplitude Professional v10.02 -> Adobe Audition v1.5 -> FLAC/16
(3 Discs Audio / 2 Discs FLAC)

All Transfers and Mastering By Charlie Miller
charliemiller87 at earthlink.net
April 1, 2008

Notes:
-- Set 2 is seamless
-- Move Tuning -> China Cat -> Rider to end of 1st Set to fit onto 2 discs
-- Two different SBD Cassette Masters were used to make this show complete
-- Thanks to Joe B. Jones for his help with the pitch correction

Set 1:
d1t01 - Little Bunny Foo-Foo tuning
d1t02 - Mississippi Half-Step Uptown Toodleloo ->
d1t03 - Jack Straw ->
d1t04 - To Lay Me Down
d1t05 - Ballad Of A Thin Man
d1t06 - When Push Comes To Shove
d1t07 - New Minglewood Blues
d1t08 - Cumberland Blues
d1t09 - Deal

Set 2:
d2t01 - Tuning
d2t02 -	China Cat Sunflower ->
d2t03 - I Know You Rider
d2t04 - Estimated Prophet ->
d2t05 - Eyes Of The World ->
d2t06 - Drums ->
d3t01 - Space ->
d3t02 - The Other One ->
d3t03 - Wharf Rat ->
d3t04 - Throwing Stones ->
d3t05 - Not Fade Away

Encore:
d3t06 - Brokedown Palace


SHNTOOL LEN
    length     expanded size    cdr  WAVE problems  fmt   ratio  filename
     1:54.03       20116700 B   ---   --   ---xx   flac  0.5667  gd88-04-01d1t01.flac
     8:48.36       93223916 B   ---   --   ---xx   flac  0.6482  gd88-04-01d1t02.flac
     5:20.42       56546828 B   ---   --   ---xx   flac  0.6499  gd88-04-01d1t03.flac
    10:45.67      113935628 B   ---   --   ---xx   flac  0.5990  gd88-04-01d1t04.flac
     7:03.32       74692508 B   ---   --   ---xx   flac  0.6405  gd88-04-01d1t05.flac
     6:01.20       63727484 B   ---   --   ---xx   flac  0.6130  gd88-04-01d1t06.flac
     8:23.50       88846844 B   ---   --   ---xx   flac  0.6266  gd88-04-01d1t07.flac
     5:56.61       62941916 B   ---   --   ---xx   flac  0.6437  gd88-04-01d1t08.flac
     7:26.50       78792044 B   ---   --   ---xx   flac  0.6593  gd88-04-01d1t09.flac
     1:23.74       14815292 B   ---   --   ---xx   flac  0.5065  gd88-04-01d2t01.flac
     6:17.01       66505196 B   ---   --   ---xx   flac  0.6524  gd88-04-01d2t02.flac
     5:30.04       58221452 B   ---   --   ---xx   flac  0.6681  gd88-04-01d2t03.flac
    12:35.61      133325516 B   ---   --   ---xx   flac  0.6596  gd88-04-01d2t04.flac
     8:55.22       94425788 B   ---   --   ---xx   flac  0.6622  gd88-04-01d2t05.flac
     7:44.23       81903740 B   ---   --   ---xx   flac  0.5865  gd88-04-01d2t06.flac
     8:29.16       89825276 B   ---   --   ---xx   flac  0.5585  gd88-04-01d3t01.flac
     7:22.19       78013532 B   ---   --   ---xx   flac  0.6517  gd88-04-01d3t02.flac
     7:55.12       83818268 B   ---   --   ---xx   flac  0.6229  gd88-04-01d3t03.flac
     9:05.17       96178028 B   ---   --   ---xx   flac  0.6478  gd88-04-01d3t04.flac
     6:20.16       67069676 B   ---   --   ---xx   flac  0.6448  gd88-04-01d3t05.flac
     5:38.48       59736140 B   ---   --   ---xx   flac  0.6165  gd88-04-01d3t06.flac
   148:57.74     1576661772 B                            0.6316  (21 files)

==========

Grateful Dead - April 9, 1988
The Centrum - Worcester, MA

Recording Info:
SBD -> Cassette Master (TDK SA-X90)

Transfer Info:
Cassette Master (Nakamichi DR-1) -> Sound Devices 744T (24bit/48k) ->
Samplitude Professional v10.02 -> Adobe Audition v1.5 -> FLAC/16
(2 Discs Audio / 2 Discs FLAC)

All Transfers and Mastering By Charlie Miller
charliemiller87 at earthlink.net
April 7, 2008

Patch Info:
FM -> Cassette Master -> ? -> PCM -> Dat -> CD (shnid=15098) supplies:
Space (6:16 - 6:24)

Notes:
-- Disc change is seamless
-- Thanks to Joe B. Jones for his help with the pitch correction

Set 1:
d1t01 - Big Boss Man
d1t02 - Walkin' Blues
d1t03 - Far From Me
d1t04 - Candyman
d1t05 - Me And My Uncle ->
d1t06 - Mexicali Blues
d1t07 - Tennessee Jed
d1t08 - When I Paint My Masterpiece
d1t09 - Deal

Set 2:
d1t10 - Tuning
d1t11 - Hell In A Bucket ->
d1t12 - Iko Iko
d2t01 - Looks Like Rain ->
d2t02 - Terrapin Station ->
d2t03 - Drums ->
d2t04 - Space ->
d2t05 - Goin' Down The Road Feeling Bad ->
d2t06 - I Need A Miracle ->
d2t07 - Dear Mr. Fantasy ->
d2t08 - Hey Jude ->
d2t09 - Throwing Stones ->
d2t10 - Not Fade Away

Encore:
d2t11 - One More Saturday Night


SHNTOOL LEN

    length     expanded size    cdr  WAVE problems  fmt   ratio  filename
     4:44.14       50130572 B   ---   --   ---xx   flac  0.6481  gd88-04-09d1t01.flac
     8:03.42       85300028 B   ---   --   ---xx   flac  0.6233  gd88-04-09d1t02.flac
     5:37.21       59496236 B   ---   --   ---xx   flac  0.6475  gd88-04-09d1t03.flac
     6:51.39       72592172 B   ---   --   ---xx   flac  0.6460  gd88-04-09d1t04.flac
     2:41.50       28518044 B   ---   --   ---xx   flac  0.6860  gd88-04-09d1t05.flac
     5:54.45       62551484 B   ---   --   ---xx   flac  0.6523  gd88-04-09d1t06.flac
     7:50.41       83004476 B   ---   --   ---xx   flac  0.6739  gd88-04-09d1t07.flac
     4:59.74       52917692 B   ---   --   ---xx   flac  0.6790  gd88-04-09d1t08.flac
     6:58.54       73862252 B   ---   --   ---xx   flac  0.6746  gd88-04-09d1t09.flac
     2:06.25       22285244 B   ---   --   ---xx   flac  0.5282  gd88-04-09d1t10.flac
     5:58.42       63250028 B   ---   --   ---xx   flac  0.6912  gd88-04-09d1t11.flac
     5:41.64       60302972 B   ---   --   ---xx   flac  0.6910  gd88-04-09d1t12.flac
     9:03.65       95938124 B   ---   --   ---xx   flac  0.6443  gd88-04-09d2t01.flac
    11:08.33      117912860 B   ---   --   ---xx   flac  0.6586  gd88-04-09d2t02.flac
     6:07.54       64865852 B   ---   --   ---xx   flac  0.5994  gd88-04-09d2t03.flac
     7:31.74       79730492 B   ---   --   ---xx   flac  0.5685  gd88-04-09d2t04.flac
     5:37.72       59616188 B   ---   --   ---xx   flac  0.6776  gd88-04-09d2t05.flac
     3:19.22       35155388 B   ---   --   ---xx   flac  0.6887  gd88-04-09d2t06.flac
     5:36.65       59423324 B   ---   --   ---xx   flac  0.6867  gd88-04-09d2t07.flac
     2:09.31       22828556 B   ---   --   ---xx   flac  0.7123  gd88-04-09d2t08.flac
     9:08.34       96747212 B   ---   --   ---xx   flac  0.6838  gd88-04-09d2t09.flac
     8:59.69       95241932 B   ---   --   ---xx   flac  0.6378  gd88-04-09d2t10.flac
     5:30.45       58317884 B   ---   --   ---xx   flac  0.6839  gd88-04-09d2t11.flac
   141:43.25     1499989012 B                            0.6550  (23 files)







More information about the bittorrent mailing list