[bittorrent] Wayward Roots The Ark Ann Arbor, Michigan 3/1/2009

Automated Mailer noreply-bt.e at etree.org
Thu Mar 5 01:06:57 MST 2009


Band:           Other
Torrent Name:   Wayward Roots The Ark Ann Arbor, Michigan 3/1/2009
Uploaded by:    zmanatl
DB Link:        
Details:        http://bt.etree.org/details.php?id=523158

Contact the seeder at http://db.etree.org/zmanatl

If the link to this show does not work, it was probably removed for
being non-trade-friendly.

Description / text file:
-------------------------
Wayward Roots
The Ark
Ann Arbor, Michigan
3/1/2009

Source: Schoeps CCM4V'S(din)>Lunatec V2>Benchmark AD2K>
Sound Devices 722 (24/48)
Location: FOB/DFC/KFC/ZFC/AARP 3rd Row, 7' From The Stage, 4' High
DSP: Sound Devices 722>Sound Forge 9.0>CD Wave>flac(16)
Recorded By: Z-Man
Seeded By: Z-Man
 
Disc I 

01 Introduction By Bill
02 Drunken Boy
03 Early Morning Rain
04 Salsa
05 Big Country

Flac fingerprint 

waywardroots2009-03-01d01t01.flac:6f376a41a25bb99c9997b8da790365ce
waywardroots2009-03-01d01t02.flac:406cf240fca302f449ef55be74d2b730
waywardroots2009-03-01d01t03.flac:d391a59bfdbf7058d6c000d6c6913b57
waywardroots2009-03-01d01t04.flac:4e3a87a440ab47ee19c9ca4da168fa0b
waywardroots2009-03-01d01t05.flac:3be2235d437bf5207a9947813b6b0eac

shntool 

    length     expanded size    cdr  WAVE problems  fmt   ratio  filename
     1:36.39       17026172 B   ---   --   ---xx   flac  0.3637  waywardroots2009-03-01d01t01.flac
     4:42.68       49904780 B   ---   --   ---xx   flac  0.4414  waywardroots2009-03-01d01t02.flac
     5:24.51       57273596 B   ---   --   ---xx   flac  0.3522  waywardroots2009-03-01d01t03.flac
     5:12.68       55196780 B   ---   --   ---xx   flac  0.4010  waywardroots2009-03-01d01t04.flac
     5:53.54       62396252 B   ---   --   ---xx   flac  0.3515  waywardroots2009-03-01d01t05.flac
    22:50.55      241797580 B                            0.3824  (5 files)











More information about the bittorrent mailing list