[bittorrent] kbrandow2009-01-30.matrix.miller.flac16 - Hopmonk Tavern

Automated Mailer noreply-bt.e at etree.org
Wed Mar 4 18:57:57 MST 2009


Band:           Other
Torrent Name:   kbrandow2009-01-30.matrix.miller.flac16 - Hopmonk Tavern
Uploaded by:    requested
DB Link:        
Details:        http://bt.etree.org/details.php?id=523153

Contact the seeder at http://db.etree.org/requested

If the link to this show does not work, it was probably removed for
being non-trade-friendly.

Description / text file:
-------------------------
kBRANDOW - January 30, 2009
Hopmonk Tavern - Sebastopol, CA

Recording Info:
SBD + (Stage) Schoeps CMC6/MK4 -> Sound Devices 744T (24bit/96k) ->
Samplitude Professional v10.2 -> FLAC/16
(2 Discs Audio / 2 Discs FLAC)

Recorded By Charlie Miller
charliemiller87 at earthlink.net

Set 1:
d1t01 - Introduction
d1t02 - Loveless
d1t03 - Manifest Destiny
d1t04 - Warm December
d1t05 - Friends
d1t06 - Down On Me
d1t07 - Polkacyde
d1t08 - Give It Up
d1t09 - Let's Get Excited
d1t10 - The Hopeless Romantic
d1t11 - Scrilla Zilla

Set 2:
d2t01 - Lovers In A Dangerous Time
d2t02 - All Roads
d2t03 - Okay
d2t04 - Wanted
d2t05 - Music Now
d2t06 - Signs
d2t07 - Find It
d2t08 - Smoke Clears
d2t09 - Used To It
d2t10 - Burn It Down
d2t11 - Respect Tonight
d2t12 - No Regrets


SHNTOOL OUTPUT:
    length     expanded size   cdr  WAVE problems filename
     1:01.03       10767500    ---   --   -----   kbrandow2009-01-30d1t01.wav
     5:28.06       57873356    ---   --   -----   kbrandow2009-01-30d1t02.wav
     4:31.54       47931452    ---   --   -----   kbrandow2009-01-30d1t03.wav
     4:16.73       45330140    ---   --   -----   kbrandow2009-01-30d1t04.wav
     4:28.20       47322284    ---   --   -----   kbrandow2009-01-30d1t05.wav
     4:28.00       47275244    ---   --   -----   kbrandow2009-01-30d1t06.wav
     3:38.68       38615180    ---   --   -----   kbrandow2009-01-30d1t07.wav
     4:53.12       51713468    ---   --   -----   kbrandow2009-01-30d1t08.wav
     6:16.14       66359372    ---   --   -----   kbrandow2009-01-30d1t09.wav
     4:32.69       48143132    ---   --   -----   kbrandow2009-01-30d1t10.wav
     3:54.33       41355260    ---   --   -----   kbrandow2009-01-30d1t11.wav
     3:40.57       38942108    ---   --   -----   kbrandow2009-01-30d2t01.wav
     6:53.01       72855596    ---   --   -----   kbrandow2009-01-30d2t02.wav
     4:12.33       44530460    ---   --   -----   kbrandow2009-01-30d2t03.wav
     5:13.42       55312028    ---   --   -----   kbrandow2009-01-30d2t04.wav
     4:25.38       46835420    ---   --   -----   kbrandow2009-01-30d2t05.wav
     6:37.21       70080236    ---   --   -----   kbrandow2009-01-30d2t06.wav
     6:53.51       72973196    ---   --   -----   kbrandow2009-01-30d2t07.wav
     5:45.62       61003868    ---   --   -----   kbrandow2009-01-30d2t08.wav
     4:53.06       51699356    ---   --   -----   kbrandow2009-01-30d2t09.wav
     6:26.19       68135132    ---   --   -----   kbrandow2009-01-30d2t10.wav
     5:31.52       58510748    ---   --   -----   kbrandow2009-01-30d2t11.wav
     4:50.66       51311276    ---   --   -----   kbrandow2009-01-30d2t12.wav
   112:53.50     1194875812 B                     (totals for 23 files)




More information about the bittorrent mailing list