[bittorrent] wsp1997-06-21.akg460.couch.26261.flac16 [wsp1997 project]

Automated Mailer noreply-bt.e at etree.org
Tue Mar 3 07:41:34 MST 2009


Band:           Widespread Panic
Torrent Name:   wsp1997-06-21.akg460.couch.26261.flac16 [wsp1997 project]
Uploaded by:    mikepanic
DB Link:        
Details:        http://bt.etree.org/details.php?id=523110

Contact the seeder at http://db.etree.org/mikepanic

If the link to this show does not work, it was probably removed for
being non-trade-friendly.

Description / text file:
-------------------------
Widespread Panic
06/19/97
NBC Studios, New York, NY
Widespread Panic
06/21/97 
Soldiers and Sailors Memorial Hall, Kansas City, KS
06-19-97 
Source: VHS Hi-Fi master > DAT > CD > EAC > FLAC
06-21-97 Source: AKG 460 + CK61 > Tascam DA302 > Yamaha O1V > 
Antex SC2000 > Samplitude 6.0 > CD Wave > FLAC
Thanks to Charles Cioffero for the 06-19-97 CD
Thanks to Harvey Couch for the 06-21-97 DAT
Transferred by Steve Porcari, Seeded by Jason Grant
Note: No music effected if you want to leave off the 06-19-97
 Conan show. I included it in this seed b/c Conan
mentions the following KC show during his introduction of the band.
Disc 1
1:  Aunt Avis(06-19-97)
2:  Conan O'Brien(06-19-97) 
3:  Walk On,
4:  Disco,
5:  Radio Child,
6:  Gradle >
7:  Dyin' Man,
8:  Walkin'(For Your Love) >
9:  Jack,
10: Sleeping Man > Jam,
11: Space Wrangler,
12: Henry Parsons Died  
Disc 2
1:  Goin' Out West,
2:  City of Dreams,
3:  Chilly Water >
4:  Ride Me High >
5:  Chilly Water,
6:  Sleepy Monkey >
7:  Coconut,
8:  Drums >
Disc 3
1:  Drums >
2:  Pilgrims,
3:  Ain't Life Grand
4:  E: Aunt Avis,
5:  E: Rock

*****Edit Original txt************
Renamed tracks to wspYYYY-MM-DD format
Added Flac Fingerprint and shntool output
Fixed SBE on 6-19-97 d1t02 and 6-21-97 d1t01 and d3t05 w/ Traders little Helper
Added New FFP and shntool output

; flac fingerprint file generated by Trader's Little Helper
; generated on October 11, 2007, at 7:41 pm

wsp1997-06-19d1t01.flac:a3a163ffce0a284cd6dc081c6568f556
wsp1997-06-19d1t02.flac:a2c0b3aa419f97d3c0c9c9b4c75e1764
wsp1997-06-21d1t01.flac:0a6d6de113e5716ece1540fef15d67f0
wsp1997-06-21d1t02.flac:af8efcbf66e73c7f032696f06c5a1fe7
wsp1997-06-21d1t03.flac:e74d5cfc8d70f34fae4468f896d60419
wsp1997-06-21d1t04.flac:f2b6e7d1d2c1fb55ba093687cb043dd1
wsp1997-06-21d1t05.flac:16034ec832aaf571f7a1092e1eadf3db
wsp1997-06-21d1t06.flac:30a87766c6daaf998de51bdf23be9b87
wsp1997-06-21d1t07.flac:aa4f59a0d294963d14a5b61ebcbcaa4a
wsp1997-06-21d1t08.flac:879f44e4510b4412d28d6d0930c9baef
wsp1997-06-21d1t09.flac:4c2d4be0eda6af2e4b5dcbd60eb16d24
wsp1997-06-21d1t10.flac:2a2b6d21c8bb246f17ee4158bb9f8622
wsp1997-06-21d2t01.flac:f37ef455cbe81fb24a2057cec6839f3b
wsp1997-06-21d2t02.flac:3dd7a541306fe71fcbae583ba6038f0e
wsp1997-06-21d2t03.flac:9e272d1513a4c8481ad426950b7e5e30
wsp1997-06-21d2t04.flac:9f94085c32fcaaa3a75735d2ce202a19
wsp1997-06-21d2t05.flac:f2dc8fe6abdd48a50f6d69506fa30171
wsp1997-06-21d2t06.flac:dcf0a2fd27d96c9e9c87a1cbf05c7886
wsp1997-06-21d2t07.flac:2dd9d521b958a5da67f138f7a590c987
wsp1997-06-21d2t08.flac:afde35e96d548af1e9b074d7d9c570c2
wsp1997-06-21d3t01.flac:6bb020be9f4e74b283c0126f4601b34d
wsp1997-06-21d3t02.flac:56a1c9a6f9049366727a341cae77058e
wsp1997-06-21d3t03.flac:c4c7ca5fc5bc66204c846cfcde3d5468
wsp1997-06-21d3t04.flac:6c186b1250172219f49ea45885472be2
wsp1997-06-21d3t05.flac:92eed3c7ba883935269a3c7fda95c2ee

  length     expanded size   cdr  WAVE problems filename
     4:03.54       42992252    ---   --   ---xx   wsp1997-06-19d1t01.flac
     0:47.72        8459592    -b-   --   ---xx   wsp1997-06-19d1t02.flac
     5:33.29       58808324    -b-   --   ---xx   wsp1997-06-21d1t01.flac
     4:50.00       51156044    ---   --   ---xx   wsp1997-06-21d1t02.flac
     6:53.51       72973196    ---   --   ---xx   wsp1997-06-21d1t03.flac
     7:34.29       80153852    ---   --   ---xx   wsp1997-06-21d1t04.flac
     5:42.60       60469964    ---   --   ---xx   wsp1997-06-21d1t05.flac
     6:01.58       63816860    ---   --   ---xx   wsp1997-06-21d1t06.flac
     7:07.63       75471020    ---   --   ---xx   wsp1997-06-21d1t07.flac
     8:57.10       94750364    ---   --   ---xx   wsp1997-06-21d1t08.flac
     9:32.65      101053724    ---   --   ---xx   wsp1997-06-21d1t09.flac
     7:23.31       78218156    ---   --   ---xx   wsp1997-06-21d1t10.flac
     7:09.43       75776780    ---   --   ---xx   wsp1997-06-21d2t01.flac
     6:18.03       66686300    ---   --   ---xx   wsp1997-06-21d2t02.flac
     7:10.04       75861452    ---   --   ---xx   wsp1997-06-21d2t03.flac
     7:32.49       79848092    ---   --   ---xx   wsp1997-06-21d2t04.flac
     6:40.53       70684700    ---   --   ---xx   wsp1997-06-21d2t05.flac
     8:39.03       91558700    ---   --   ---xx   wsp1997-06-21d2t06.flac
     6:55.38       73295420    ---   --   ---xx   wsp1997-06-21d2t07.flac
     8:29.72       89956988    ---   --   ---xx   wsp1997-06-21d2t08.flac
     1:07.32       11894108    ---   --   ---xx   wsp1997-06-21d3t01.flac
     9:03.66       95940476    ---   --   ---xx   wsp1997-06-21d3t02.flac
     7:47.72       82548188    ---   --   ---xx   wsp1997-06-21d3t03.flac
     6:34.16       69539276    ---   --   ---xx   wsp1997-06-21d3t04.flac
     8:03.60       85341440    -b-   --   ---xx   wsp1997-06-21d3t05.flac
   166:01.57     1757255268 B                     (totals for 25 files, 0.6427 overall compression ratio)


; flac fingerprint file generated by Trader's Little Helper
; generated on October 11, 2007, at 8:07 pm

wsp1997-06-19d1t01.flac:a3a163ffce0a284cd6dc081c6568f556
wsp1997-06-19d1t02.flac:9d235fd850cdb5257138201f12e69bd9
wsp1997-06-21d1t01.flac:2b7c7ce8ce55272f21a2507fc4efe407
wsp1997-06-21d1t02.flac:946b976b2aaa767c578d4e30e84ff08b
wsp1997-06-21d1t03.flac:700f26a07f123a195e4115607ba37f23
wsp1997-06-21d1t04.flac:4d38ce446fed180e9569f161d4382668
wsp1997-06-21d1t05.flac:c204cd92bf7764b3b3a8cd9b06ab0a4d
wsp1997-06-21d1t06.flac:db5fbf24ff60a1e217056aa46463ccae
wsp1997-06-21d1t07.flac:b2afc2ea1f6ae8a9c6122e0cf03855c6
wsp1997-06-21d1t08.flac:a6d031b43273d039bcb5794ca684f30d
wsp1997-06-21d1t09.flac:b6b477032661d9782ffc778b3ae1b31c
wsp1997-06-21d1t10.flac:b4e1fd7f3ce326bda29c87056697653e
wsp1997-06-21d2t01.flac:5452e9bc7ee7b8ca1914e69a760236b5
wsp1997-06-21d2t02.flac:f324eac3fb039e64f0790d39eec3190f
wsp1997-06-21d2t03.flac:1f1192a9d7f26a2cfe2a9c6516b61fe9
wsp1997-06-21d2t04.flac:729740362657c3f36af9cf08a39b4263
wsp1997-06-21d2t05.flac:4ee3a459cdaa77e8528e340935ac5c1b
wsp1997-06-21d2t06.flac:7c60e4ab9ae2ea4c8b0818c3b84edfe7
wsp1997-06-21d2t07.flac:4f4b8f5e622ded3ab23e4ebe004e5801
wsp1997-06-21d2t08.flac:0b548025099d9c631b90cf6965ed274b
wsp1997-06-21d3t01.flac:77bf050f6cddf31ae0b018534a07d8e1
wsp1997-06-21d3t02.flac:4e46ad3407fb5081b0f84d0676a07cb8
wsp1997-06-21d3t03.flac:2f08b81a6f3c48232e33d669e634cb9c
wsp1997-06-21d3t04.flac:45563c3e0445df9adbf8287f31a6c670
wsp1997-06-21d3t05.flac:1347aa0158a3f8ef5a990f6609625677

    length     expanded size   cdr  WAVE problems filename
     4:03.54       42992252    ---   --   ---xx   wsp1997-06-19d1t01.flac
     0:47.71        8457836    ---   --   ---xx   wsp1997-06-19d1t02.flac
     5:33.29       58809452    ---   --   ---xx   wsp1997-06-21d1t01.flac
     4:50.00       51156044    ---   --   ---xx   wsp1997-06-21d1t02.flac
     6:53.51       72973196    ---   --   ---xx   wsp1997-06-21d1t03.flac
     7:34.29       80153852    ---   --   ---xx   wsp1997-06-21d1t04.flac
     5:42.60       60469964    ---   --   ---xx   wsp1997-06-21d1t05.flac
     6:01.58       63816860    ---   --   ---xx   wsp1997-06-21d1t06.flac
     7:07.63       75471020    ---   --   ---xx   wsp1997-06-21d1t07.flac
     8:57.10       94750364    ---   --   ---xx   wsp1997-06-21d1t08.flac
     9:32.65      101053724    ---   --   ---xx   wsp1997-06-21d1t09.flac
     7:23.31       78218156    ---   --   ---xx   wsp1997-06-21d1t10.flac
     7:09.43       75776780    ---   --   ---xx   wsp1997-06-21d2t01.flac
     6:18.03       66686300    ---   --   ---xx   wsp1997-06-21d2t02.flac
     7:10.04       75861452    ---   --   ---xx   wsp1997-06-21d2t03.flac
     7:32.49       79848092    ---   --   ---xx   wsp1997-06-21d2t04.flac
     6:40.53       70684700    ---   --   ---xx   wsp1997-06-21d2t05.flac
     8:39.03       91558700    ---   --   ---xx   wsp1997-06-21d2t06.flac
     6:55.38       73295420    ---   --   ---xx   wsp1997-06-21d2t07.flac
     8:29.72       89956988    ---   --   ---xx   wsp1997-06-21d2t08.flac
     1:07.32       11894108    ---   --   ---xx   wsp1997-06-21d3t01.flac
     9:03.66       95940476    ---   --   ---xx   wsp1997-06-21d3t02.flac
     7:47.72       82548188    ---   --   ---xx   wsp1997-06-21d3t03.flac
     6:34.16       69539276    ---   --   ---xx   wsp1997-06-21d3t04.flac
     8:03.60       85342364    ---   --   ---xx   wsp1997-06-21d3t05.flac
   166:01.57     1757255564 B                     (totals for 25 files, 0.6405 overall compression ratio)




More information about the bittorrent mailing list