[bittorrent] wsp1997-05-09.dsbd.unknown.23582.flac16 [wsp1997 project]

Automated Mailer noreply-bt.e at etree.org
Sun Mar 1 12:55:54 MST 2009


Band:           Widespread Panic
Torrent Name:   wsp1997-05-09.dsbd.unknown.23582.flac16 [wsp1997 project]
Uploaded by:    mikepanic
DB Link:        
Details:        http://bt.etree.org/details.php?id=523054

Contact the seeder at http://db.etree.org/mikepanic

If the link to this show does not work, it was probably removed for
being non-trade-friendly.

Description / text file:
-------------------------
Widespread Panic
Aragon Ballroom
Chicago, IL
May 9, 1997

Source: DSBD
Transfer: DA-20mkII > SonicPort > CDWave > SoundForge (48/44.1) > CDRWin

Conversion: Ivan Kotch (ik1013 at yahoo.com)

DAT courtesy of: Jamie Syrek (Jamieson22 at yahoo.com)

Uploaded to Puba by Jamie Syrek

Disc One:

1.  Weight Of The World
2.  Glory
3.  Little Kin
4.  Jam >
5.  Ain't No Use > 
6.  Gradle
7.  You Got Yours
8.  David Blackmon Intro
9.  Raise The Roof*
10. C. Brown*
11. Travelin' Light*

Disc Two:

1.  Crowd/Tuning
2.  Holden Oversoul >
3.  Walkin' (For Your Love) >
4.  Dyin' Man >
5.  Arleen* >
6.  Aunt Avis* >
7.  Henry Parsons* >
8.  Drums >
9.  Space Wrangler >
10. Tall Boy

Disc Three:

Encore:

1.  Crowd/Tuning
2.  Driving Song* >
3.  Orange Blossom Special* >
4.  Driving Song*
5.  Ain't Life Grand*

* with David Blackmon (fiddle)

*** Notes ***

Diginoise at beginning of 'Weight Of The World'

Diginoise from 2:08-2:11 of 'Glory'

Small dropout in d3t2 'Driving Song'

***********************************************************
Edits (Converted to flac)

shn > shntool v2.0.3 > flac
by: Patrick Wood (10/02/2006)

***********************************************************
Flac Fingerprint

wsp97-05-09d1t01.flac:ad9cc68812f52b92a08bfe18e6a69db4
wsp97-05-09d1t02.flac:f458a975e99f5906f649ada0d66c2f7d
wsp97-05-09d1t03.flac:c0eb9477380ed53e3451ad5ee2bec2da
wsp97-05-09d1t04.flac:f34e9cd2b99d1f65f24bd5a61b26f550
wsp97-05-09d1t05.flac:fb96fea15535c81ccd5ae008f7228e6d
wsp97-05-09d1t06.flac:475379ca4f27998ad37df4cc1798d7b6
wsp97-05-09d1t07.flac:38a9ca44df1bcaf9a7ed2bdf918375c2
wsp97-05-09d1t08.flac:94d1ed9ede0662323f6adbcf700ef87e
wsp97-05-09d1t09.flac:b5a4f9b3ef4a3d7cf16dbc014fe6a13e
wsp97-05-09d1t10.flac:c18013403fcb756b48cd75b8c6a41034
wsp97-05-09d1t11.flac:bb620e1296648d37fc696c948bd1af01
wsp97-05-09d2t01.flac:bcb1620d03df32db54a64c2c36341e01
wsp97-05-09d2t02.flac:39cd538ee456f585097156372c6f54e3
wsp97-05-09d2t03.flac:b21e034b191ef262ac72ae663be67cfd
wsp97-05-09d2t04.flac:1e40ff5b0ac3d4a80a2b8b0f45e90fd9
wsp97-05-09d2t05.flac:f839f637bcb5026414e18d1edfb127c6
wsp97-05-09d2t06.flac:58c78465b79474b6e2557bb901a3930b
wsp97-05-09d2t07.flac:ef5bd9499ba0da4363d79fb1dec03eb7
wsp97-05-09d2t08.flac:ac3c13f0caeb2c9afeb140bf723135cb
wsp97-05-09d2t09.flac:1f7e1f7373a1a578ac4fee046df8d057
wsp97-05-09d2t10.flac:e5791c4d44a0ae35ab3593658595cf82
wsp97-05-09d3t01.flac:6c7589df73136a6856b8330daa212796
wsp97-05-09d3t02.flac:82d7993cd765703c65f442cd6b474f3e
wsp97-05-09d3t03.flac:4c9b20b109a1ddfa8a6aa342e991ba16
wsp97-05-09d3t04.flac:77af8aabe6a68b75c2a93d643712d318
wsp97-05-09d3t05.flac:bb50b995642bb59f638877db45c17a51

***********************************************************
Shntool Output

 length     expanded size   cdr  WAVE problems filename
     5:46.40     61128524    ---   --   ---xx   wsp97-05-09d1t01.flac
     3:35.02     37930748    ---   --   ---xx   wsp97-05-09d1t02.flac
     4:49.48     51092540    ---   --   ---xx   wsp97-05-09d1t03.flac
     0:50.02      8824748    ---   --   ---xx   wsp97-05-09d1t04.flac
    13:31.53    143185100    ---   --   ---xx   wsp97-05-09d1t05.flac
     4:25.72     46915388    ---   --   ---xx   wsp97-05-09d1t06.flac
     6:15.47     66260588    ---   --   ---xx   wsp97-05-09d1t07.flac
     0:17.33      3076460    ---   --   ---xx   wsp97-05-09d1t08.flac
     5:51.63     62064620    ---   --   ---xx   wsp97-05-09d1t09.flac
     7:13.05     76393004    ---   --   ---xx   wsp97-05-09d1t10.flac
     7:05.28     75035900    ---   --   ---xx   wsp97-05-09d1t11.flac
     0:43.37      7672268    ---   --   ---xx   wsp97-05-09d2t01.flac
     8:52.67     94002428    ---   --   ---xx   wsp97-05-09d2t02.flac
     5:04.46     53733836    ---   --   ---xx   wsp97-05-09d2t03.flac
     5:43.66     60660476    ---   --   ---xx   wsp97-05-09d2t04.flac
    11:49.50    125185244    ---   --   ---xx   wsp97-05-09d2t05.flac
     7:18.05     77275004    ---   --   ---xx   wsp97-05-09d2t06.flac
     7:19.68     77599580    ---   --   ---xx   wsp97-05-09d2t07.flac
     8:03.18     85243580    ---   --   ---xx   wsp97-05-09d2t08.flac
     9:39.23    102189740    ---   --   ---xx   wsp97-05-09d2t09.flac
     5:07.19     54199532    ---   --   ---xx   wsp97-05-09d2t10.flac
     2:06.72     22395788    ---   --   ---xx   wsp97-05-09d3t01.flac
     6:53.70     73017884    ---   --   ---xx   wsp97-05-09d3t02.flac
     5:29.18     58077980    ---   --   ---xx   wsp97-05-09d3t03.flac
     3:20.45     35385884    ---   --   ---xx   wsp97-05-09d3t04.flac
     5:21.67     56782028    ---   --   ---xx   wsp97-05-09d3t05.flac
   152:37.14   1615328872 B                     
(totals for 26 files, 0.5806 overall compression ratio)

***********************************************************
Original Md5

027a241719a2c9add20a4a06ab0b62d9 *wsp97-05-09d1t01.shn
5af650ae14f4cf2bd57213d77e5fa208 *wsp97-05-09d1t02.shn
ff6fb40a1b0f08ce71556afed5abd938 *wsp97-05-09d1t03.shn
fce6d8a4b2f6db336488c420b0e7d949 *wsp97-05-09d1t04.shn
2183a3cb420a27c17d3737cd0d488e04 *wsp97-05-09d1t05.shn
fa262ee0cf37407923374757b3016601 *wsp97-05-09d1t06.shn
c93e5200ae7482fa78415d938aec4c7f *wsp97-05-09d1t07.shn
f23fb1686d1887af9d60e165e8455a3e *wsp97-05-09d1t08.shn
a2760f231efcbf01faecee21bf5bc9ea *wsp97-05-09d1t09.shn
97e585cf21d21ae5a739d708d89a6881 *wsp97-05-09d1t10.shn
678f7238293d6b42fc0786e01baaadd3 *wsp97-05-09d1t11.shn
55d06f5069f56fbece05426a6ad4c634 *wsp97-05-09d2t01.shn
f79c9ba771f07db90b6576ab2e22f773 *wsp97-05-09d2t02.shn
41fad4a408405369f47b799c35571dca *wsp97-05-09d2t03.shn
facfdf1b7228818dd71ed1d414fe3694 *wsp97-05-09d2t04.shn
fa6c7498359de66285383df85a444e8c *wsp97-05-09d2t05.shn
b08e8d7f49a4f0aee22f65f6db704b3e *wsp97-05-09d2t06.shn
3d0ad189c1227450f094246adf1fbda8 *wsp97-05-09d2t07.shn
a6b0b0a2858293090afc876a3b2a3de7 *wsp97-05-09d2t08.shn
89360b7cf2f19dec4496af6e8b7138f7 *wsp97-05-09d2t09.shn
601938b8622271090701517933bf3439 *wsp97-05-09d2t10.shn
fe3ae8a7e0ba4d409fcd543ba90bc8b9 *wsp97-05-09d3t01.shn
e3fba42d664bec81da301bd1bda9656b *wsp97-05-09d3t02.shn
cc720140d944bfcca32a05b9d0489b8a *wsp97-05-09d3t03.shn
da3924ff5ec33139083fd5354bdccc99 *wsp97-05-09d3t04.shn
064fe053d30aac40e52466ed8b0717a1 *wsp97-05-09d3t05.shn






More information about the bittorrent mailing list